Отель романтических свиданий / Hotel Normandy (Шарль Немес) [2013, Франция / Мелодрама, комедия / HDRip] [лицензия]

Ответить на тему
 

Akmal89 ®

Стаж: 5 лет 6 месяцев

Сообщений: 237

Симпатии: 99

-Отель романтических свиданий / Hotel Normandy-«Всё началось внезапно» Год выпуска: 2013
Страна: Франция
Жанр: Мелодрама, комедия
Продолжительность: 01:27:21
Перевод: Профессиональный (многоголосый) [Лицензия]--Режиссер: Шарль Немес--В ролях: Эрик Элмоснино, Элена Ногуэрра, Эри Абиттан, Фредерик Бель, Энн Жирар, Аннелиз Эсм, Алис Белаиди, Жан-Мари Ламур, Седрик Бен Абдулла, Филипп Сутан.--Описание: Элис молода, красива, занимается любимым делом. Если бы она не потеряла мужа несколько лет назад, то можно было бы сказать, что она просто эталон счастливой женщины. Ближайшие подруги полны решимости выдать ее замуж. Именно для этого они отправляют Элис в самый романтичный отель на свете — легендарную «Нормандию» в Довиле. Уж там-то она точно кого-нибудь встретит!-- --Качество: HDRip
Формат: AVI
Видео кодек: XviD
Аудио кодек: AC3
Видео: XviD, 720 x 304, 24.000 fps, 1 993 Кбит/сек
Аудио: AC3, 384 Кбит/сек, 6 ch, 48 kHz
---

Media Info

D:\Torrents Downloads\Temp\Hotel.Normandy.2013.HDRip.[dchub.ws].avi
General
Complete name : D:\Torrents Downloads\Temp\Hotel.Normandy.2013.HDRip.[dchub.ws].avi
Format : AVI
Format/Info : Audio Video Interleave
File size : 1.46 GiB
Duration : 1h 27mn
Overall bit rate : 2 386 Kbps
Writing application : VirtualDubMod 1.5.10.2 (build 2540/release)
Writing library : VirtualDubMod build 2540/release
Video #0
ID : 0
Format : MPEG-4 Visual
Format profile : Advanced [email protected]
Format settings, BVOP : 2
Format settings, QPel : No
Format settings, GMC : No warppoints
Format settings, Matrix : Custom
Codec ID : XVID
Codec ID/Hint : XviD
Duration : 1h 27mn
Bit rate : 1 993 Kbps
Width : 720 pixels
Height : 304 pixels
Display aspect ratio : 2.35:1
Frame rate : 24.000 fps
Color space : YUV
Chroma subsampling : 4:2:0
Bit depth : 8 bits
Scan type : Progressive
Compression mode : Lossy
Bits/(Pixel*Frame) : 0.379
Stream size : 1.22 GiB (84%)
Writing library : XviD 1.2.1 (UTC 2008-12-04)
Audio #1
ID : 1
Format : AC-3
Format/Info : Audio Coding 3
Mode extension : CM (complete main)
Format settings, Endianness : Big
Codec ID : 2000
Duration : 1h 27mn
Bit rate mode : Constant
Bit rate : 384 Kbps
Channel(s) : 6 channels
Channel positions : Front: L C R, Side: L R, LFE
Sampling rate : 48.0 KHz
Bit depth : 16 bits
Compression mode : Lossy
Stream size : 240 MiB (16%)
Alignment : Split accross interleaves
Interleave, duration : 42 ms (1.00 video frame)
Interleave, preload duration : 500 ms

Скриншоты


Создавать темы 15-Май-2014 14:32

[Профиль]  [ЛС] 

outoforder

Стаж: 4 года 10 месяцев

Сообщений: 812

Симпатии: 172

Черт, а франзузы умеют снимать кенцо, которое не хочется смотреть уже через 1 минуту после начала. Совершенно солидарен с оценками IMDb - проходняк. Если я когда-нить посмотреть его, отпишусь еще

Создавать темы 27-Май-2014 23:32

[Профиль]  [ЛС] 
Показать сообщения:    
Ответить на тему

Текущее время: 20-Сен 14:26

Часовой пояс: UTC + 5



Вы не можете начинать темы
Вы не можете отвечать на сообщения
Вы не можете редактировать свои сообщения
Вы не можете удалять свои сообщения
Вы не можете голосовать в опросах
Вы не можете прикреплять файлы к сообщениям
Вы не можете скачивать файлы