Не безопасно для работы / Not Safe for Work (Джо Джонстон / Joe Johnston) (2014, Триллер, HDRip) L1

Ответить на тему
 

Suxrob89 ®

Стаж: 7 лет 4 месяца

Сообщений: 933

Симпатии: 564

-Не безопасно для работы / Not Safe for Work- Год выпуска: 2014
Производство: США
Жанр: Триллер
Продолжительность: 01:11:10
Перевод: Одноголосый закадровый, профессиональный
Озвучка / Автор перевода: datynet
Субтитры: Отсутствуют-Режиссер: Джо Джонстон / Joe Johnston
Продюсер: Джейсон Блум, Жанетт Брилл, Брайан Брукс, Джоэль Садилек, Купер Самуэльсон
Актеры: Джей Джей Филд, Элоиза Мамфорд, Макс Мингелла, Майкл Глэдис, Молли Хэйгэн, Кристиан Клименсон, Брэндон Кинер, Тим Гриффин, Марина Блэк, Эме Иквуакор-Описание фильма:
Обычный офисный работник Том Миллер вынужден вступить в смертельное противостояние с безумным убийцей, оказавшимся в одном с ним здании. Том всеми силами пытается защитить работающих допоздна сотрудников своей юридической фирмы, которые не подозревают о нависшей над ними угрозой, однако вскоре выясняет, что его коллеги скрывают ужасную тайну, из-за которой тысячи жизней подвергаются опасности.-Дата мировой премьеры: 9 мая 2014
Дата российской премьеры: неизвестно
Дата выхода DVD релиза: 29 мая 2014- -Качество: HDRip
Формат: AVI
Видеокодек: Xvid
Аудиокодек: MP3
Видео: ~1199 Kb/s, 720 x 384, 25.000 fps
Аудио: 160 kb/s, 2 ch, 44.1 KHz

Media info

E:\Not.Safe.for.Work.2014.HDRip.avi
General
Complete name : E:\Not.Safe.for.Work.2014.HDRip.avi
Format : AVI
Format/Info : Audio Video Interleave
File size : 698 MiB
Duration : 1h 11mn
Overall bit rate : 1 372 Kbps
Movie name : RARBG.COM - Not.Safe.for.Work.2014.DVDRip.XviD.MP3-RARBG
Writing application : Lavf55.35.101
Comment : RARBG.COM - Not.Safe.for.Work.2014.DVDRip.XviD.MP3-RARBG
Video #0
ID : 0
Format : MPEG-4 Visual
Format profile : [email protected]
Format settings, BVOP : No
Format settings, QPel : No
Format settings, GMC : No warppoints
Format settings, Matrix : Default (H.263)
Codec ID : XVID
Codec ID/Hint : XviD
Duration : 1h 11mn
Bit rate : 1 199 Kbps
Width : 720 pixels
Height : 384 pixels
Display aspect ratio : 1.85:1
Frame rate : 25.000 fps
Color space : YUV
Chroma subsampling : 4:2:0
Bit depth : 8 bits
Scan type : Progressive
Compression mode : Lossy
Bits/(Pixel*Frame) : 0.174
Stream size : 610 MiB (87%)
Writing library : Lavc55.55.104
Audio #1
ID : 1
Format : MPEG Audio
Format version : Version 1
Format profile : Layer 3
Codec ID : 55
Codec ID/Hint : MP3
Duration : 1h 11mn
Bit rate mode : Constant
Bit rate : 160 Kbps
Channel count : 2 channels
Sampling rate : 44.1 KHz
Compression mode : Lossy
Stream size : 81.4 MiB (12%)
Alignment : Aligned on interleaves
Interleave, duration : 26 ms (0.65 video frame)
Interleave, preload duration : 26 ms
Writing library : LAME3.99.5

Скриншоты

Создавать темы 16-Май-2014 06:54

[Профиль]  [ЛС] 

AbiJan

Стаж: 6 лет 6 месяцев

Сообщений: 80

Симпатии: 12

Вообще Not safe for work (NSFW) должно переводиться как ОСНЭ или Осторожно, сиськи на экране))) Но наконец-то прокатчики начали думать, гденужно правильно переводить, а где нет.

Создавать темы 16-Май-2014 23:15

[Профиль]  [ЛС] 

icefrog_ss

Стаж: 5 лет 3 месяца

Сообщений: 69

Симпатии: 3

Спасибо!!!

Создавать темы 18-Май-2014 17:41

[Профиль]  [ЛС] 

vadumb

Стаж: 7 лет 7 месяцев

Сообщений: 50

Симпатии: 3

Хоть отпишитесь стоит ли качать, или опять высосанный из пальца намек на триллер?

Создавать темы 19-Май-2014 21:58

[Профиль]  [ЛС] 

sprut66

Стаж: 4 года 10 месяцев

Сообщений: 51

Симпатии: 5

Очень класный фильм! Держит в напряжении постоянно!

Создавать темы 03-Июн-2014 10:45

[Профиль]  [ЛС] 

фазилов

Стаж: 3 года 10 месяцев

Сообщений: 310

Симпатии: 344

Конец не понятен. Грохнут главного героя или нет? Так и тянет на продолжение. А может так и задумано.

Создавать темы 30-Ноя-2014 17:00

[Профиль]  [ЛС] 

djm3

Стаж: 6 лет 10 месяцев

Сообщений: 55

Симпатии: 7

Начал смотреть... половину посмотрел - интересный фильм вроде. Актер в роли киллера офигенно похож на Локи з фильма Тор (это не он :))

Создавать темы 10-Дек-2014 09:33

[Профиль]  [ЛС] 
Показать сообщения:    
Ответить на тему

Текущее время: 14-Дек 15:00

Часовой пояс: UTC + 5



Вы не можете начинать темы
Вы не можете отвечать на сообщения
Вы не можете редактировать свои сообщения
Вы не можете удалять свои сообщения
Вы не можете голосовать в опросах
Вы не можете прикреплять файлы к сообщениям
Вы не можете скачивать файлы