Прошлое / Le passé (Асгар Фархади / Asghar Farhadi) [2013, Франция, Италия, драма, детектив, HDRip] AVO (Антон Алексеев)

Ответить на тему
 

astronaut ®

Стаж: 6 лет

Сообщений: 26

Симпатии: 14

Прошлое / Le passé- Страна: Франция, Италия
Жанр: драма, детектив
Год выпуска: 2013
Продолжительность: 02:10:22-Перевод: Авторский (одноголосый закадровый) [Антон Алексеев]
Субтитры: нет
Режиссер: Асгар Фархади / Asghar Farhadi
В ролях: Беренис Бежо, Тахар Рахим, Али Мосаффа, Полин Бурле, Элиэ Аги, Джинн Джестин, Сабрина Уазани, Бабак Карими, Валерия Кавалли, Александра Клебанска, Жан-Мишель Симонет, Pierre Guerder-Описание: Ахмад и его французская жена четыре года живут врозь. По просьбе Мари герой приезжает в Париж из Тегерана, чтобы уладить формальности, связанные с их разводом. Во время своего короткого визита Ахмад наблюдает постоянные ссоры жены и их дочери Люси. Его попытка уладить их отношения открывает секрет из прошлого...-

Доп. Информация

Сценарий: Асгар Фархади / Asghar Farhadi, Массумех Лахиджи / Massoumeh Lahidji
Продюсер: Александр Малле-Гай / Alexandre Mallet-Guy, Алекса Риверо / Alexa Rivero
Оператор: Махмуд Калари / Mahmoud Kalari
Композитор: Евгений Гальперин / Evgueni Galperine, Йули Гальперин / Youli Galperine
Бюджет: $11 000 000
Мировая премьера: 17 мая 2013
Релиз на DVD: 1 апреля 2014,
«Columbia/Sony»
-Качество: HDRip (Исходник BDRip 720p)
Контейнер: AVI
Видео: XviD, 720x384 (1.875), 1793 kbps, 23,976 fps, 0,271 bpp
Аудио: AC3 / 5.1 / 48 kHz / 448 kbps / 16 bit-

Media Info

General
Complete name : D:\Le.passe.2013.P1.HDRip_2100Mb.avi
Format : AVI
Format/Info : Audio Video Interleave
Format profile : OpenDML
File size : 2.05 GiB
Duration : 2h 10mn
Overall bit rate : 2 251 Kbps
Writing application : VirtualDubMod 1.5.10.3 | www.virtualdub-fr.org || (build 2550/release)
Writing library : VirtualDubMod build 2550/release
Video
ID : 0
Format : MPEG-4 Visual
Format profile : Advanced [email protected]
Format settings, BVOP : 1
Format settings, QPel : No
Format settings, GMC : No warppoints
Format settings, Matrix : Custom
Codec ID : XVID
Codec ID/Hint : XviD
Duration : 2h 10mn
Bit rate : 1 794 Kbps
Width : 720 pixels
Height : 384 pixels
Display aspect ratio : 1.875
Frame rate : 23.976 fps
Color space : YUV
Chroma subsampling : 4:2:0
Bit depth : 8 bits
Scan type : Progressive
Compression mode : Lossy
Bits/(Pixel*Frame) : 0.271
Stream size : 1.63 GiB (80%)
Writing library : XviD 1.2.1 (UTC 2008-12-04)
Audio
ID : 1
Format : AC-3
Format/Info : Audio Coding 3
Mode extension : CM (complete main)
Codec ID : 2000
Duration : 2h 9mn
Bit rate mode : Constant
Bit rate : 448 Kbps
Channel(s) : 6 channels
Channel positions : Front: L C R, Side: L R, LFE
Sampling rate : 48.0 KHz
Bit depth : 16 bits
Compression mode : Lossy
Stream size : 415 MiB (20%)
Alignment : Split accross interleaves
Interleave, duration : 42 ms (1.01 video frame)
Interleave, preload duration : 500 ms

Скриншоты



Создавать темы 18-Май-2014 00:23

[Профиль]  [ЛС] 

Sakar

Стаж: 4 года 1 месяц

Сообщений: 26

народ, как фильм? смотреть можно?

Создавать темы 20-Май-2014 15:18

[Профиль]  [ЛС] 

husan642

Стаж: 4 года 5 месяцев

Сообщений: 1

на один раз

Создавать темы 21-Май-2014 22:45

[Профиль]  [ЛС] 
Показать сообщения:    
Ответить на тему

Текущее время: 14-Дек 18:01

Часовой пояс: UTC + 5



Вы не можете начинать темы
Вы не можете отвечать на сообщения
Вы не можете редактировать свои сообщения
Вы не можете удалять свои сообщения
Вы не можете голосовать в опросах
Вы не можете прикреплять файлы к сообщениям
Вы не можете скачивать файлы