Оторвы / Ass Backwards ( Кристофер Нельсон) [2013, комедия, приключения, HDRip] Чистый звук

Ответить на тему
 

Каротажник ®

Стаж: 4 года 2 месяца

Сообщений: 195

Симпатии: 211

Оторвы / Ass Backwards

Год выпуска: 2013
Страна: США
Жанр: комедия, приключения

Продолжительность: 01:21:36
Перевод: Дублированный - Чистый звук

Режиссёр: Кристофер Нельсон
В ролях: Джун Рафаэль, Кейси Уилсон, Джон Крайер, Винсент Д’Онофрио, Алисия Сильверстоун, Брайан Джерати, Боб Оденкёрк, Пол Шеер, Сэнди Мартин, Марсия Джин Кертц

Двое подружек, которые постоянно попадают в неприятности, а это и не удивительно, ведь они - настоящие блондинки, несмотря на то, что одна из них брюнетка, переехали жить в Нью-Йорк из маленького богом забытого городка. Дела в мегаполисе у подружек не складываются, в результате чего им грозит выселение из квартиры. Но у них появляется шанс показать себя во всей красе: из родного городка им приходит приглашение для участие в конкурсе красоты. Это событие становится настоящим испытанием для их дружбы, которое сопровождается невероятным количеством забавных происшествий...

Качество: HDRip
Формат: Avi

Видео: Xvid 720x400 25fps 1871kbps
Аудио 1: AC3 48000Hz stereo 128kbps
Аудио 2: AC3 48000Hz 6ch 384kbps

Media Info

Format : AVI
Format/Info : Audio Video Interleave
File size : 1.37 GiB
Duration : 1h 21mn
Overall bit rate : 2 398 Kbps
Writing application : VirtualDubMod 1.5.10.2 (build 2540/release)
Writing library : VirtualDubMod build 2540/release
Video
ID : 0
Format : MPEG-4 Visual
Format profile : Advanced [email protected]
Format settings, BVOP : 2
Format settings, QPel : No
Format settings, GMC : No warppoints
Format settings, Matrix : Custom
Codec ID : XVID
Codec ID/Hint : XviD
Duration : 1h 21mn
Bit rate : 1 872 Kbps
Width : 720 pixels
Height : 400 pixels
Display aspect ratio : 16:9
Frame rate : 25.000 fps
Color space : YUV
Chroma subsampling : 4:2:0
Bit depth : 8 bits
Scan type : Progressive
Compression mode : Lossy
Bits/(Pixel*Frame) : 0.260
Stream size : 1.07 GiB (78%)
Writing library : XviD 1.2.1 (UTC 2008-12-04)
Audio #1
ID : 1
Format : AC-3
Format/Info : Audio Coding 3
Mode extension : CM (complete main)
Format settings, Endianness : Big
Codec ID : 2000
Duration : 1h 21mn
Bit rate mode : Constant
Bit rate : 128 Kbps
Channel(s) : 2 channels
Channel positions : Front: L R
Sampling rate : 48.0 KHz
Bit depth : 16 bits
Compression mode : Lossy
Stream size : 74.7 MiB (5%)
Alignment : Split accross interleaves
Interleave, duration : 40 ms (1.00 video frame)
Interleave, preload duration : 500 ms
Audio #2
ID : 2
Format : AC-3
Format/Info : Audio Coding 3
Mode extension : CM (complete main)
Format settings, Endianness : Big
Codec ID : 2000
Duration : 1h 21mn
Bit rate mode : Constant
Bit rate : 384 Kbps
Channel(s) : 6 channels
Channel positions : Front: L C R, Side: L R, LFE
Sampling rate : 48.0 KHz
Bit depth : 16 bits
Compression mode : Lossy
Stream size : 224 MiB (16%)
Alignment : Split accross interleaves
Interleave, duration : 40 ms (1.00 video frame)
Interleave, preload duration : 500 ms

Скриншоты


Создавать темы 18-Май-2014 01:18

[Профиль]  [ЛС] 
Показать сообщения:    
Ответить на тему

Текущее время: 15-Дек 13:12

Часовой пояс: UTC + 5



Вы не можете начинать темы
Вы не можете отвечать на сообщения
Вы не можете редактировать свои сообщения
Вы не можете удалять свои сообщения
Вы не можете голосовать в опросах
Вы не можете прикреплять файлы к сообщениям
Вы не можете скачивать файлы