Патэма наоборот / Sakasama no Patema / Patema Inverted (Ясухиро Ёсиура) [Movie] [без хардсаба] [RUS(int), JAP+SUB] [2013 г., Постапокалипсис, антиутопия, фантастика, приключения, BDRip][720p]

Ответить на тему
 

rikimaruxxx ®

Стаж: 5 лет 5 месяцев

Сообщений: 254

Симпатии: 42

- Год выпуска: 2013 г.
Жанр: Постапокалипсис, антиутопия, фантастика, приключения
Продолжительность: 98минут-Перевод: Любительская многоголосая, закадравая
Озвучивали: OVERLORDS & ArmorDRX & Mutsuko Air & Horie & Exevan [AniStar]-Режиссер: Ёсиура Ясухиро
Студия: Purple Cow Studio Japan-Описание: В результате некой произошедшей в прошлом катастрофы человечество разделилось на два народа. Для первого народа гравитация действует наоборот и его представители, а также используемые ими вещи падают в небеса. Однако, эти люди живут под землей, поэтому большой угрозы для них эта особенность не представляет. Для второго народа гравитация действует обычным образом и он живет на поверхности земли. Жизни этих двух народов практически не пересекаются и о существовании друг друга большая часть их представителей не знает. Однако, у живущих на поверхности людей есть история о том что в прошлом грешники улетели на небеса. Поэтому в обществе считается недопустимым смотреть на небо и следует направлять свой взгляд на землю.- Качество: BDRip
Тип релиза: Без хардсаба
Формат видео: MKV
Видео: H.264, 1280x720, 1 830 Kbps, 23,976 fps, 10 bit
Аудио #1: AC3, 128 Kbps, 48.0 KHz, 2ch, RU [anistar]
Аудио #2: AC3, 640 Kbps, 48.0 KHz, 6ch, JP
Субтитры: ASS, Внешние, RUS, от Sheydi Renger

MI

General
Unique ID                      : 226065806932319578427378267180517282756 (0xAA12B0D189D2995A9C2EC96FB4F7D3C4)
Complete name                  : D:\disc\Gold Collection\Патэма Наоборот [BD] [720p]\Sakasama.no.patema.RUS.mkv
Format                         : Matroska
Format version                 : Version 4 / Version 2
File size                      : 1.83 GiB
Duration                       : 1h 38mn
Overall bit rate               : 2 648 Kbps
Encoded date                   : UTC 2014-05-17 22:01:00
Writing application            : mkvmerge v6.4.1 ('Omega Point') built on Sep 17 2013 21:21:51
Writing library                : libebml v1.3.0 + libmatroska v1.4.1
Video
ID                             : 1
Format                         : AVC
Format/Info                    : Advanced Video Codec
Format profile                 : High [email protected]
Format settings, CABAC         : Yes
Format settings, ReFrames      : 16 frames
Codec ID                       : V_MPEG4/ISO/AVC
Duration                       : 1h 38mn
Bit rate                       : 1 827 Kbps
Width                          : 1 280 pixels
Height                         : 720 pixels
Display aspect ratio           : 16:9
Frame rate mode                : Constant
Frame rate                     : 23.976 fps
Color space                    : YUV
Chroma subsampling             : 4:2:0
Bit depth                      : 10 bits
Scan type                      : Progressive
Bits/(Pixel*Frame)             : 0.083
Stream size                    : 1.26 GiB (69%)
Title                          : Sakasama no Patema
Writing library                : x264 core 138 r2358 9e941d1
Encoding settings              : cabac=1 / ref=16 / deblock=1:0:0 / analyse=0x3:0x133 / me=umh / subme=10 / psy=1 / psy_rd=1.00:0.00 / mixed_ref=1 / me_range=24 / chroma_me=1 / trellis=2 / 8x8dct=1 / cqm=0 / deadzone=21,11 / fast_pskip=1 / chroma_qp_offset=-2 / threads=12 / lookahead_threads=2 / sliced_threads=0 / nr=0 / decimate=1 / interlaced=0 / bluray_compat=0 / constrained_intra=0 / bframes=8 / b_pyramid=2 / b_adapt=2 / b_bias=0 / direct=3 / weightb=1 / open_gop=0 / weightp=2 / keyint=240 / keyint_min=23 / scenecut=40 / intra_refresh=0 / rc_lookahead=60 / rc=crf / mbtree=1 / crf=16.0 / qcomp=0.60 / qpmin=0 / qpmax=81 / qpstep=4 / ip_ratio=1.40 / aq=1:1.00
Language                       : Japanese
Default                        : Yes
Forced                         : No
Audio #1
ID                             : 2
Format                         : AC-3
Format/Info                    : Audio Coding 3
Mode extension                 : CM (complete main)
Format settings, Endianness    : Big
Codec ID                       : A_AC3
Duration                       : 1h 38mn
Bit rate mode                  : Constant
Bit rate                       : 128 Kbps
Channel(s)                     : 2 channels
Channel positions              : Front: L R
Sampling rate                  : 48.0 KHz
Bit depth                      : 16 bits
Compression mode               : Lossy
Stream size                    : 90.5 MiB (5%)
Title                          : anistar
Language                       : Russian
Default                        : Yes
Forced                         : No
Audio #2
ID                             : 3
Format                         : AC-3
Format/Info                    : Audio Coding 3
Mode extension                 : CM (complete main)
Format settings, Endianness    : Big
Codec ID                       : A_AC3
Duration                       : 1h 38mn
Bit rate mode                  : Constant
Bit rate                       : 640 Kbps
Channel(s)                     : 6 channels
Channel positions              : Front: L C R, Side: L R, LFE
Sampling rate                  : 48.0 KHz
Bit depth                      : 16 bits
Compression mode               : Lossy
Stream size                    : 453 MiB (24%)
Title                          : JP Sound
Language                       : Japanese
Default                        : No
Forced                         : No

Скриншоты

Создавать темы 18-Май-2014 03:25

[Профиль]  [ЛС] 

rikimaruxxx ®

Стаж: 5 лет 5 месяцев

Сообщений: 254

Симпатии: 42

Диски «Реанимедиа» планирует выпустить летом или в начале осени!

Создавать темы 18-Май-2014 03:40

[Профиль]  [ЛС] 

SNIL

Стаж: 5 лет 11 месяцев

Сообщений: 2624

Симпатии: 341

Я так понял, это продолжение этого https://tas-ix.net/viewtopic.php?t=64156 ?

Создавать темы 18-Май-2014 12:24

[Профиль]  [ЛС] 

rikimaruxxx ®

Стаж: 5 лет 5 месяцев

Сообщений: 254

Симпатии: 42

SNIL, В 2012 году, до выпуска полнометражного фильма вышел короткометражный сериал, состоящий из 4 серий, под названием Sakasama no Patema: Beginning of the Day (яп. サカサマのパテマ Beginning of the Day). Он представляет собой первые пол ча са фильма, разбитый на 4 части

Создавать темы 18-Май-2014 13:07

[Профиль]  [ЛС] 

SNIL

Стаж: 5 лет 11 месяцев

Сообщений: 2624

Симпатии: 341

RIKIMARUXXX, ясно! глянем, спс

Создавать темы 18-Май-2014 13:10

[Профиль]  [ЛС] 

SNIL

Стаж: 5 лет 11 месяцев

Сообщений: 2624

Симпатии: 341

Конец удивил! вообщем зачёт (хоть и не много скучноват)

Создавать темы 20-Май-2014 10:42

[Профиль]  [ЛС] 

daniellya

Стаж: 5 лет 8 месяцев

Сообщений: 338

Симпатии: 29

>Патэма наоборот
А могли бы перевести как Перевернутая Патема. Мда.

Создавать темы 20-Май-2014 14:43

[Профиль]  [ЛС] 
Показать сообщения:    
Ответить на тему

Текущее время: 17-Дек 20:41

Часовой пояс: UTC + 5



Вы не можете начинать темы
Вы не можете отвечать на сообщения
Вы не можете редактировать свои сообщения
Вы не можете удалять свои сообщения
Вы не можете голосовать в опросах
Вы не можете прикреплять файлы к сообщениям
Вы не можете скачивать файлы