Роковая страсть / The Immigrant (Джеймс Грэй / James Gray ) [2013, США, драма, мелодрама, HDRip] [Лицензия]

Ответить на тему
 

Suxrob89 ®

Стаж: 7 лет 2 месяца

Сообщений: 933

Симпатии: 564

-Роковая страсть / The Immigrant- Год выпуска: 2013
Страна: США
Жанр: Драма, мелодрама
Продолжительность: 01:59:19
Перевод: Многоголосый закадровый, профессиональный [Лицензия]-Режиссёр: Джеймс Грэй
Сценарий: Джеймс Грэй, Рик Менелло
Продюсер: Джеймс Грэй, Энтони Катагас, Грег Шапиро
Оператор: Дариус Хонджи
Композитор: Кристофер Спелман
Художник: Хэппи Масси, Питер Зумба, Патриция Норрис
Монтаж: Джон Экселрэд, Кайла Эмтер-В ролях: Марион Котийяр, Хоакин Феникс, Джереми Реннер, Гленн Флешлер, Анджела Сарафян, Дагмара Доминчик, Гэбриел Раш, ДиДи Люкс, Илья Волох, Энтони Короне-Описание: 1921 г. Эва с сестрой Магдой покидают родную Польшу в поисках Земли обетованной, которой им представляется Нью-Йорк. По прибытии Магду, заболевшую туберкулезом, помещают в карантин. Одинокая и растерянная Эва попадает в сети бесстыдного сутенера Бруно. Чтобы спасти сестру она готова на все жертвы и соглашается стать проституткой. Появление иллюзиониста Орландо, двоюродного брата Бруно, возвращает девушке уверенность и надежду на лучшие дни. Но она забыла о ревности Бруно…-Бюджет: $16 500 000
Сборы в России: $57 937
Мировая премьера: 24 мая 2013
Премьера (РФ): 20 марта 2014, «Премиум Фильм»
Релиз на DVD: 15 мая 2014, «CP Дистрибуция»- -Качество: HDRip
Формат: AVI
Видео: Xvid, 720 x 304, 1384 Кбит/сек, 23,976 кадра/сек
Аудио: AC-3, 384 Кбит/сек, 6 каналов, 48,0 КГц

Media info

Полное имя                               : H:\Rokovaya.strast.2013.P.HDRip.1.46GB.avi
Формат                                   : AVI
Формат/Информация                        : Audio Video Interleave
Размер файла                             : 1,46 Гбайт
Продолжительность                        : 1 ч. 57 м.
Общий поток                              : 1777 Кбит/сек
Программа кодирования                    : VirtualDubMod 1.5.10.2 (build 2540/release)
Библиотека кодирования                   : VirtualDubMod build 2540/release
Видео
Идентификатор                            : 0
Формат                                   : MPEG-4 Visual
Профиль формата                          : Advanced [email protected]
Параметр BVOP формата                    : 2
Параметр QPel формата                    : Нет
Параметр GMC формата                     : Без точки перехода
Параметр матрицы формата                 : Выборочная
Идентификатор кодека                     : XVID
Идентификатор кодека/Подсказка           : XviD
Продолжительность                        : 1 ч. 57 м.
Битрейт                                  : 1384 Кбит/сек
Ширина                                   : 720 пикселей
Высота                                   : 304 пикселя
Соотношение сторон                       : 2,35:1
Частота кадров                           : 23,976 кадра/сек
Цветовое пространство                    : YUV
Субдискретизация насыщенности            : 4:2:0
Битовая глубина                          : 8 бит
Тип развёртки                            : Прогрессивная
Метод сжатия                             : С потерями
Бит/(Пиксели*Кадры)                      : 0.264
Размер потока                            : 1,13 Гбайт (78%)
Библиотека кодирования                   : XviD 1.2.1 (UTC 2008-12-04)
Аудио
Идентификатор                            : 1
Формат                                   : AC-3
Формат/Информация                        : Audio Coding 3
Расширение режима                        : CM (complete main)
Параметр Endianness формата              : Big
Идентификатор кодека                     : 2000
Продолжительность                        : 1 ч. 57 м.
Вид битрейта                             : Постоянный
Битрейт                                  : 384 Кбит/сек
Каналы                                   : 6 каналов
Расположение каналов                     : Front: L C R, Side: L R, LFE
Частота                                  : 48,0 КГц
Битовая глубина                          : 16 бит
Метод сжатия                             : С потерями
Размер потока                            : 322 Мбайт (22%)
Выравнивание                             : Разделение по промежуткам
Продолжительность промежутка             : 42  мс. (1,00 видеокадр)
Время предзагрузки промежутка            : 500  мс.

Скриншоты

Создавать темы 18-Май-2014 12:04

[Профиль]  [ЛС] 
Показать сообщения:    
Ответить на тему

Текущее время: 24-Окт 05:23

Часовой пояс: UTC + 5



Вы не можете начинать темы
Вы не можете отвечать на сообщения
Вы не можете редактировать свои сообщения
Вы не можете удалять свои сообщения
Вы не можете голосовать в опросах
Вы не можете прикреплять файлы к сообщениям
Вы не можете скачивать файлы