Она / Her (Спайк Джонс) [2013, мелодрама, драма, фантастика] Дублированное [Чистый Звук]

Ответить на тему
 

sc257 ®

Стаж: 5 лет 8 месяцев

Сообщений: 12

Симпатии: 2

Она / Her
Год выпуска: 2013
Страна: США
Жанр: мелодрама, драма, фантастика
Продолжительность: 02:05:50
Перевод:
___Дублированное [Чистый Звук]
___Любительское (многоголосое) [Студия Гараж]
___Авторское (одноголосое) [А.Матвеев]
Субтитры: Russian (full) - [Arona] + (forced), English-Режиссёр: Спайк Джонс
В ролях: Хоакин Феникс, Эми Адамс, Руни Мара, Оливия Уайлд, Скарлетт Йоханссон, Линн А. Фридман, Лиза Рени Питтс, Гейб Гомез, Крис Прэтт, Артт Батлер, Мэй Линдстрём, Билл Хейдер, Кристен Уиг, Брайан Джонсон, Мэтт Летчер, Спайк Джонс-Описание: Теодор Туомбли — молодой писатель, который очень сильно переживает развод. Он и его супруга были хорошей семьей: преодолевали вместе множество препятствий, переживали трудные времена и радовались каждому счастливому моменту. Но в один миг всего этого не стало, и Теодор потерял смысл в своей жизни. Друзья всеми силами пытаются вытащить его из депрессии, знакомя с молоденькими симпатичными девушками, но Теодор оказывается не готов к новым отношениям. В один прекрасный момент он покупает новейшую операционную систему, искусственный интеллект которой максимально приближен к человеческому, и с этого момента его жизнь меняется самым кардинальным образом. Ежедневное общение с Самантой возрождает в нем желание жить, строить планы на будущее, испытывать радость...
-Качество: BDRip 1080p
Формат: MKV
Видео: 16100 kb/s, 1920x1036, 23,976 Fps
Аудио:
___Russian [Дубляж]: AC3, 192 kb/s (2 ch)
___Russian [Студия Гараж] / [А.Матвеев]: DTS, 1510 kb/s (6 ch)
___English: DTS, 1510 kb/s (6 ch)
Дополнительно: Сохранены оригинальные чаптеры как на Blu-ray

Media Info

General
Unique ID : 191989709385472852143945828297601616741 (0x906FDF7F05E9334898F6A4C5BE6A8B65)
Complete name : Her.2013.Blu.Ray.1080p.CINEMANIA.mkv
Format : Matroska
Format version : Version 4 / Version 2
File size : 18.7 GiB
Duration : 2h 5mn
Overall bit rate : 21.3 Mbps
Movie name : Release Group CINEMANIA
Encoded date : UTC 2014-05-13 06:58:22
Writing application : mkvmerge v6.9.1 ('Blue Panther') 64bit built on Apr 18 2014 18:23:38
Writing library : libebml v1.3.0 + libmatroska v1.4.1
Video
ID : 1
Format : AVC
Format/Info : Advanced Video Codec
Format profile : [email protected]
Format settings, CABAC : Yes
Format settings, ReFrames : 4 frames
Codec ID : V_MPEG4/ISO/AVC
Duration : 2h 5mn
Bit rate : 16.1 Mbps
Width : 1 920 pixels
Height : 1 036 pixels
Display aspect ratio : 1.85:1
Frame rate mode : Constant
Frame rate : 23.976 fps
Color space : YUV
Chroma subsampling : 4:2:0
Bit depth : 8 bits
Scan type : Progressive
Bits/(Pixel*Frame) : 0.338
Stream size : 14.2 GiB (76%)
Title : Release Group CINEMANIA
Writing library : x264 core 142 r2409+42 04be48a tMod [[email protected] X86_64]
Encoding settings : cabac=1 / ref=4 / deblock=1:-3:-3 / analyse=0x3:0x133 / me=umh / subme=11 / psy=1 / fade_compensate=0.00 / psy_rd=1.10:0.00 / mixed_ref=1 / me_range=30 / chroma_me=1 / trellis=2 / 8x8dct=1 / cqm=0 / deadzone=21,11 / fast_pskip=0 / chroma_qp_offset=-2 / threads=6 / lookahead_threads=1 / sliced_threads=0 / nr=0 / decimate=0 / interlaced=0 / bluray_compat=0 / constrained_intra=0 / fgo=0 / bframes=6 / b_pyramid=2 / b_adapt=2 / b_bias=0 / direct=3 / weightb=1 / open_gop=0 / weightp=2 / keyint=250 / keyint_min=23 / scenecut=40 / intra_refresh=0 / rc_lookahead=60 / rc=crf / mbtree=0 / crf=17.0000 / qcomp=0.70 / qpmin=0:0:0 / qpmax=69:69:69 / qpstep=4 / vbv_maxrate=50000 / vbv_bufsize=62500 / crf_max=0.0 / nal_hrd=none / filler=0 / ip_ratio=1.30 / pb_ratio=1.10 / aq=4:0.90 / aq-sensitivity=10.00 / aq-factor=1.00:1.00:1.00 / aq2=0 / aq3=0 / zones=169035,181029,pbratio=1.3,crf=23
Language : English
Default : Yes
Forced : No
Matrix coefficients : BT.709
Audio #1
ID : 2
Format : AC-3
Format/Info : Audio Coding 3
Mode extension : CM (complete main)
Format settings, Endianness : Big
Codec ID : A_AC3
Duration : 2h 5mn
Bit rate mode : Constant
Bit rate : 192 Kbps
Channel(s) : 2 channels
Channel positions : Front: L R
Sampling rate : 48.0 KHz
Bit depth : 16 bits
Compression mode : Lossy
Stream size : 173 MiB (1%)
Title : Дубляж (Чистый Звук)
Language : Russian
Default : Yes
Forced : Yes
Audio #2
ID : 3
Format : DTS
Format/Info : Digital Theater Systems
Mode : 16
Format settings, Endianness : Big
Codec ID : A_DTS
Duration : 2h 5mn
Bit rate mode : Constant
Bit rate : 1 509 Kbps
Channel(s) : 6 channels
Channel positions : Front: L C R, Side: L R, LFE
Sampling rate : 48.0 KHz
Bit depth : 24 bits
Compression mode : Lossy
Stream size : 1.33 GiB (7%)
Title : Студия Гараж
Language : Russian
Default : No
Forced : No
Audio #3
ID : 4
Format : DTS
Format/Info : Digital Theater Systems
Mode : 16
Format settings, Endianness : Big
Codec ID : A_DTS
Duration : 2h 5mn
Bit rate mode : Constant
Bit rate : 1 510 Kbps
Channel(s) : 6 channels
Channel positions : Front: L C R, Side: L R, LFE
Sampling rate : 48.0 KHz
Bit depth : 24 bits
Compression mode : Lossy
Stream size : 1.33 GiB (7%)
Title : А.Матвеев
Language : Russian
Default : No
Forced : No
Audio #4
ID : 5
Format : DTS
Format/Info : Digital Theater Systems
Mode : 16
Format settings, Endianness : Big
Codec ID : A_DTS
Duration : 2h 5mn
Bit rate mode : Constant
Bit rate : 1 509 Kbps
Channel(s) : 6 channels
Channel positions : Front: L C R, Side: L R, LFE
Sampling rate : 48.0 KHz
Bit depth : 24 bits
Compression mode : Lossy
Stream size : 1.33 GiB (7%)
Language : English
Default : No
Forced : No
Text #1
ID : 6
Format : UTF-8
Codec ID : S_TEXT/UTF8
Codec ID/Info : UTF-8 Plain Text
Title : forced
Language : Russian
Default : Yes
Forced : Yes
Text #2
ID : 7
Format : UTF-8
Codec ID : S_TEXT/UTF8
Codec ID/Info : UTF-8 Plain Text
Title : full (Arona)
Language : Russian
Default : No
Forced : No
Text #3
ID : 8
Format : UTF-8
Codec ID : S_TEXT/UTF8
Codec ID/Info : UTF-8 Plain Text
Language : English
Default : No
Forced : No
Text #4
ID : 9
Format : UTF-8
Codec ID : S_TEXT/UTF8
Codec ID/Info : UTF-8 Plain Text
Title : SDH
Language : English
Default : No
Forced : No
Menu
00:00:00.000 : en:Chapter 1
00:10:02.560 : en:Chapter 2
00:19:10.107 : en:Chapter 3
00:32:12.681 : en:Chapter 4
00:40:40.146 : en:Chapter 5
00:52:38.197 : en:Chapter 6
01:03:11.454 : en:Chapter 7
01:12:45.027 : en:Chapter 8
01:20:36.874 : en:Chapter 9
01:30:02.105 : en:Chapter 10
01:41:40.011 : en:Chapter 11
01:50:33.293 : en:Chapter 12
01:57:32.671 : en:Chapter 13

Скриншоты

Создавать темы 19-Май-2014 09:44

[Профиль]  [ЛС] 

sensation01

Стаж: 5 лет 3 месяца

Сообщений: 12

Симпатии: 2

норм весит

Создавать темы 19-Май-2014 11:43

[Профиль]  [ЛС] 

sobirstark

Стаж: 4 года 3 месяца

Сообщений: 9

3-скрин заманчивый

Создавать темы 19-Май-2014 12:26

[Профиль]  [ЛС] 

Jahongirxon

Стаж: 5 лет 8 месяцев

Сообщений: 5

а че так 18 то весит?

Создавать темы 19-Май-2014 19:11

[Профиль]  [ЛС] 

Топик был перенесен из форума Фильмы за 2013 в форум Зарубежное кино
mp1988

Создавать темы 19-Май-2014 21:41

 

sc257 ®

Стаж: 5 лет 8 месяцев

Сообщений: 12

Симпатии: 2

830885а че так 18 то весит?
Это БДрип 1920x1036 высшего качества

Создавать темы 21-Май-2014 08:57

[Профиль]  [ЛС] 

Dionis-J

Стаж: 3 года 10 месяцев

Сообщений: 34

Симпатии: 1

УРААААААААААААААА , наконец-то докачал , РАЗДАЮ !!!

Создавать темы 29-Май-2014 22:10

[Профиль]  [ЛС] 

Karima

Стаж: 3 года 11 месяцев

Сообщений: 15

Ну и размерчик )) даже БДрип Хоббита столько не весил...

Создавать темы 22-Фев-2015 19:55

[Профиль]  [ЛС] 
Показать сообщения:    
Ответить на тему

Текущее время: 25-Сен 13:01

Часовой пояс: UTC + 5



Вы не можете начинать темы
Вы не можете отвечать на сообщения
Вы не можете редактировать свои сообщения
Вы не можете удалять свои сообщения
Вы не можете голосовать в опросах
Вы не можете прикреплять файлы к сообщениям
Вы не можете скачивать файлы