Пораженный / Afflicted (Дерек Ли, Клифф Проуз) [2013 г., Ужасы, триллер, HDTVRip]

Ответить на тему
 

utkir4891 ®

Стаж: 4 года 2 месяца

Сообщений: 14

Симпатии: 12

Пораженный / Afflicted Год выпуска: 2013
Страна: Канада, США, Automatik Entertainment, IM Global, Telefilm Canada
Жанр: Ужасы, триллер
Продолжительность: 01:25:36
Перевод: Любительский одноголосый [datynet]-Режиссер: Дерек Ли, Клифф Проуз
Продюсер: Крис Фергюсон, Зэк Липовски, Джейсон Даудесвелл
Сценарий: Дерек Ли, Клифф Проуз
Оператор: Норм Ли
В ролях: Дерек Ли, Клифф Проуз, Майкл Джилл, Джейсон Ли, Гэри Редекоп-Описание: Лучшие друзья Клифф и Дерек в поисках приключений отправляются в кругосветное путешествие. После загадочного знакомства с таинственной незнакомкой, Дерек переживает трансформацию и превращается в кровожадное создание. Наводящее ужас путешествие приводит друзей на край света…-Качество: HDRip
Формат: AVI
Видео кодек: DivX
Аудио кодек: AC3
Видео: MPEG4, XviD, 720x400 (16:9), 29.970 fps, 1 892 Kbps
Аудио #1: AC-3, 48.0 KHz, 2 ch, 192 Kbps, CBR
Аудио #2: AC-3, 48.0 KHz, 2 ch, 192 Kbps, CBR

MediaInfo

General
Complete name : D:\Afflicted (2013)\Пораженный - Afflicted (2013).avi
Format : AVI
Format/Info : Audio Video Interleave
File size : 1.37 GiB
Duration : 1h 25mn
Overall bit rate : 2 294 Kbps
Writing application : VirtualDubMod 1.5.10.2 (build 2540/release)
Writing library : VirtualDubMod build 2540/release
Video
ID : 0
Format : MPEG-4 Visual
Format profile : Advanced [email protected]
Format settings, BVOP : 2
Format settings, QPel : No
Format settings, GMC : No warppoints
Format settings, Matrix : Default (MPEG)
Codec ID : XVID
Codec ID/Hint : XviD
Duration : 1h 25mn
Bit rate : 1 892 Kbps
Width : 720 pixels
Height : 400 pixels
Display aspect ratio : 16:9
Frame rate : 29.970 fps
Color space : YUV
Chroma subsampling : 4:2:0
Bit depth : 8 bits
Scan type : Progressive
Compression mode : Lossy
Bits/(Pixel*Frame) : 0.219
Stream size : 1.13 GiB (82%)
Writing library : XviD 1.2.1 (UTC 2008-12-04)
Audio #1
ID : 1
Format : AC-3
Format/Info : Audio Coding 3
Mode extension : CM (complete main)
Format settings, Endianness : Big
Codec ID : 2000
Duration : 1h 25mn
Bit rate mode : Constant
Bit rate : 192 Kbps
Channel(s) : 2 channels
Channel positions : Front: L R
Sampling rate : 48.0 KHz
Bit depth : 16 bits
Compression mode : Lossy
Stream size : 118 MiB (8%)
Alignment : Split accross interleaves
Interleave, duration : 33 ms (1.00 video frame)
Interleave, preload duration : 500 ms
Audio #2
ID : 2
Format : AC-3
Format/Info : Audio Coding 3
Mode extension : CM (complete main)
Format settings, Endianness : Big
Codec ID : 2000
Duration : 1h 25mn
Bit rate mode : Constant
Bit rate : 192 Kbps
Channel(s) : 2 channels
Channel positions : Front: L R
Sampling rate : 48.0 KHz
Bit depth : 16 bits
Compression mode : Lossy
Stream size : 118 MiB (8%)
Alignment : Split accross interleaves
Interleave, duration : 33 ms (1.00 video frame)
Interleave, preload duration : 500 ms

Скриншоты

Создавать темы 20-Май-2014 06:54

[Профиль]  [ЛС] 
Показать сообщения:    
Ответить на тему

Текущее время: 19-Авг 10:41

Часовой пояс: UTC + 5



Вы не можете начинать темы
Вы не можете отвечать на сообщения
Вы не можете редактировать свои сообщения
Вы не можете удалять свои сообщения
Вы не можете голосовать в опросах
Вы не можете прикреплять файлы к сообщениям
Вы не можете скачивать файлы