Любовь, секс и Лос-Анджелес / Cavemen (Хершел Фабер / Herschel Faber) [2013, США, мелодрама, комедия, HDRip] MVO + Original Eng

Ответить на тему
 

Suxrob89 ®

Стаж: 7 лет

Сообщений: 933

Симпатии: 564

-Любовь, секс и Лос-Анджелес / Cavemen- Страна: США
Жанр: мелодрама, комедия
Год выпуска: 2013
Продолжительность: 01:26:48
Перевод: Профессиональный (многоголосый закадровый)
Cубтитры: нет
Оригинальная аудиодорожка: английский-Режиссер: Хершел Фабер / Herschel Faber-В ролях: Скайлар Эстин, Камилла Белль, Чад Майкл Мюррэй, Дайо Окенайи, Алексис Нэп, Кенни Вормолд, Чести Бальестерос, Джейсон Патрик, Зулейка Силвер, Меган Стивенсонш-Описание: Плей-бой из Лос-Анджелеса Дин вместе со своими закадычными друзьями живут разгульной жизнью — устраивает развратные вечеринки, снимают девчонок на ночь, употребляя море алкоголя и попадая постоянно в смешные ситуации.
Однажды Дин решает изменить свою жизнь и попробовать найти настоящую любовь, что оказывается горадно труднее, чем он думал, в современном Лос-Анджелесе. Девятилетний племянник и лучшая подруга Тесс пытаются ему помочь найти любовь, а закадычные друзья всячески мешают этому. Дин начинает понимать, что настоящая любовь гораздо ближе, чем он мог предположить, и он должен будет сделать выбор между девушкой, которая ему идеально подходит и соблазнительной девушкой из его фантазий…- -Качество видео: HDRip
Формат видео: AVI
Видео: XviD, 1861 kb/s, 720x304, 23,976 кадра/сек
Аудио: Русский, AC3, 192 kb/s (2 ch), 48,0 КГц
Аудио 2: Английский, AC3, 192 kb/s (2 ch), 48,0 КГц

MediaInfo

General
Complete name : I:\Любовь, секс и Лос-Анджелес\Lubovj.seks.i.Los.Anzheles.2013.P.HDRip.1400Mb.avi
Format : AVI
Format/Info : Audio Video Interleave
File size : 1.37 GiB
Duration : 1h 26mn
Overall bit rate : 2 260 Kbps
Writing application : VirtualDubMod 1.5.10.2 (build 2540/release)
Writing library : VirtualDubMod build 2540/release
Video #0
ID : 0
Format : MPEG-4 Visual
Format profile : Advanced [email protected]
Format settings, BVOP : 2
Format settings, QPel : No
Format settings, GMC : No warppoints
Format settings, Matrix : Default (MPEG)
Codec ID : XVID
Codec ID/Hint : XviD
Duration : 1h 26mn
Bit rate : 1 862 Kbps
Width : 720 pixels
Height : 304 pixels
Display aspect ratio : 2.35:1
Frame rate : 23.976 fps
Color space : YUV
Chroma subsampling : 4:2:0
Bit depth : 8 bits
Scan type : Progressive
Compression mode : Lossy
Bits/(Pixel*Frame) : 0.355
Stream size : 1.13 GiB (82%)
Writing library : XviD 1.2.1 (UTC 2008-12-04)
Audio #1
ID : 1
Format : AC-3
Format/Info : Audio Coding 3
Mode extension : CM (complete main)
Format settings, Endianness : Big
Codec ID : 2000
Duration : 1h 26mn
Bit rate mode : Constant
Bit rate : 192 Kbps
Channel count : 2 channels
Channel positions : Front: L R
Sampling rate : 48.0 KHz
Bit depth : 16 bits
Compression mode : Lossy
Stream size : 119 MiB (8%)
Alignment : Split accross interleaves
Interleave, duration : 42 ms (1.00 video frame)
Interleave, preload duration : 500 ms
Audio #2
ID : 2
Format : AC-3
Format/Info : Audio Coding 3
Mode extension : CM (complete main)
Format settings, Endianness : Big
Codec ID : 2000
Duration : 1h 26mn
Bit rate mode : Constant
Bit rate : 192 Kbps
Channel count : 2 channels
Channel positions : Front: L R
Sampling rate : 48.0 KHz
Bit depth : 16 bits
Compression mode : Lossy
Stream size : 119 MiB (8%)
Alignment : Split accross interleaves
Interleave, duration : 42 ms (1.00 video frame)
Interleave, preload duration : 500 ms

Скриншоты

Создавать темы 21-Май-2014 02:17

[Профиль]  [ЛС] 

serj777

Стаж: 4 года 1 месяц

Сообщений: 59

Симпатии: 3

как фильм? кто видел?

Создавать темы 21-Май-2014 14:44

[Профиль]  [ЛС] 

Светлана

Стаж: 4 года 11 месяцев

Сообщений: 11

Симпатии: 1

на раздачу ктонеть, спасибо.

Создавать темы 26-Окт-2014 00:38

[Профиль]  [ЛС] 
Показать сообщения:    
Ответить на тему

Текущее время: 19-Авг 04:47

Часовой пояс: UTC + 5



Вы не можете начинать темы
Вы не можете отвечать на сообщения
Вы не можете редактировать свои сообщения
Вы не можете удалять свои сообщения
Вы не можете голосовать в опросах
Вы не можете прикреплять файлы к сообщениям
Вы не можете скачивать файлы