Замороженные солдаты / Ice Soldiers (Стурла Гуннарссон / Sturla Gunnarsson) [2013, Канада, Фантастика, боевик, HDRip] VO

Ответить на тему
 

razor2011 ®

Стаж: 5 лет

Сообщений: 227

Симпатии: 37

Замороженные солдаты / Ice Soldiers- Страна: Канада
Студия: Hideaway Pictures, TAJJ Media, Bunk 11 Pictures
Жанр: Фантастика, боевик
Год выпуска: 2013
Продолжительность: 01:35:20
Перевод: Дублированный(Лицензия)
Cубтитры: Отсутствуют-Режиссер: Стурла Гуннарссон / Sturla Gunnarsson
Продюсер: Джефф Сэкман, Дэвид Джозеф Ансельмо, Майкл Бэйкер-В ролях: Доминик Пёрселл, Грег Стивен Браун, Бенц Антуан, Майкл Айронсайд, Рауль Банеджа, Нику Бранзеа, Гэбриел Хоган, Адам Бич-Описание: Ученый в снегах Канады обнаруживает три тела русских военных, с генетическими изменениями. Он приводит их в чувство и зря — он разморозил смертельную опасность для общества.-Дата мировой премьеры: 5 декабря 2013
Дата российской премьеры: 11 марта 2014, «Columbia/Sony»
Дата выхода DVD релиза: 11 марта 2014, «Columbia/Sony»- -Качество видео: HDRip
Формат видео: AVI
Видео: XviD, 720x304, MPEG-4 Visual, 1659 Kbps
Аудио: AC-3, 384 Kbps, 6 channels, 48.0 KHz-

MediaInfo

General
Complete name : I:\Замороженные солдаты\Ice.Soldiers.2013.P.HDRip.1400MB.avi
Format : AVI
Format/Info : Audio Video Interleave
File size : 1.37 GiB
Duration : 1h 35mn
Overall bit rate : 2 052 Kbps
Writing application : VirtualDubMod 1.5.10.2 (build 2540/release)
Writing library : VirtualDubMod build 2540/release
Video #0
ID : 0
Format : MPEG-4 Visual
Format profile : Advanced [email protected]
Format settings, BVOP : 2
Format settings, QPel : No
Format settings, GMC : No warppoints
Format settings, Matrix : Custom
Codec ID : XVID
Codec ID/Hint : XviD
Duration : 1h 35mn
Bit rate : 1 659 Kbps
Width : 720 pixels
Height : 304 pixels
Display aspect ratio : 2.35:1
Frame rate : 23.976 fps
Color space : YUV
Chroma subsampling : 4:2:0
Bit depth : 8 bits
Scan type : Progressive
Compression mode : Lossy
Bits/(Pixel*Frame) : 0.316
Stream size : 1.10 GiB (81%)
Writing library : XviD 1.2.1 (UTC 2008-12-04)
Audio #1
ID : 1
Format : AC-3
Format/Info : Audio Coding 3
Mode extension : CM (complete main)
Format settings, Endianness : Big
Codec ID : 2000
Duration : 1h 35mn
Bit rate mode : Constant
Bit rate : 384 Kbps
Channel count : 6 channels
Channel positions : Front: L C R, Side: L R, LFE
Sampling rate : 48.0 KHz
Bit depth : 16 bits
Compression mode : Lossy
Stream size : 262 MiB (19%)
Alignment : Split accross interleaves
Interleave, duration : 42 ms (1.00 video frame)
Interleave, preload duration : 500 ms

Скриншоты



Создавать темы 22-Май-2014 00:38

[Профиль]  [ЛС] 

abror_xon

Стаж: 5 лет 5 месяцев

Сообщений: 27

Симпатии: 4

Фильм не стоит смотреть !

Создавать темы 22-Май-2014 07:30

[Профиль]  [ЛС] 
Показать сообщения:    
Ответить на тему

Текущее время: 27-Сен 03:40

Часовой пояс: UTC + 5



Вы не можете начинать темы
Вы не можете отвечать на сообщения
Вы не можете редактировать свои сообщения
Вы не можете удалять свои сообщения
Вы не можете голосовать в опросах
Вы не можете прикреплять файлы к сообщениям
Вы не можете скачивать файлы