3 дня на убийство / 3 Days to Kill (МакДжи) [2014, боевик, триллер, драма, криминал, HDRip] [Лицензия]

Ответить на тему
 

razor2011 ®

Стаж: 5 лет

Сообщений: 227

Симпатии: 37

3 дня на убийство / 3 Days to Kill
- 6.525 / 10 6.20 / 10- Год выпуска: 2014
Страна: США, Франция, Греция, Россия
Жанр: боевик, криминал, триллер, драма, комедия
Продолжительность: 01:57:02
Перевод: Дублированный [Лицензия]
Оригинальная аудиодорожка: Есть-Режиссёр: МакДжи
Сценарий: Люк Бессон, Ади Хасак
Продюсер: Люк Бессон, Ади Хасак, Райан Кэвэна
Оператор: Тьерри Арбогаст
Композитор: Гийом Пассел
Художник: Джереми Кэсселлс, Себастьен Инизан, Натали Вайнман
Монтаж: Одри Симоно-В ролях: Кевин Костнер, Эмбер Хёрд, Хейли Стайнфелд, Конни Нильсен, Томас Лемаркус, Рихард Заммель, Марк Андреони, Бруно Риччи, Йонас Блоке, Эрик Эбони-Описание: В секретной лаборатории ученые разработали препарат, который позволяет человеку справиться с любой неизлечимой болезнью. Руководство спецслужб предлагает принять это лекарство экс-агенту спецслужб Итану Раннеру, которому врачи объявили смертельный диагноз. Но он должен выполнить еще одно задание, которое, впрочем, может стоить ему жизни. Теперь вокруг Раннера начинают происходить странные вещи. Что это — галлюцинации, побочный эффект от таблеток или мир действительно полон ужаса и кошмара?-Качество: HDRip
Формат: Avi
Видео: 720x304, (2.35:1), 23.976 fps, XviD build ~1723 kbps avg, 0.328 bit/pixel
Аудио 1: 48 kHz, AC3 Dolby Digital, 3/2 (L,C,R,l,r) + LFE ch, ~384.00 kbps | RUS
Аудио 2: 48 kHz, AC3 Dolby Digital, 3/2 (L,C,R,l,r) + LFE ch, ~384.00 kbps | ENG-

Скриншоты



MI

D:\фильмы\3.Dnya.Na.Ub1ystvo.2014.HDRip..avi
General
Complete name : D:\фильмы\3.Dnya.Na.Ub1ystvo.2014.HDRip..avi
Format : AVI
Format/Info : Audio Video Interleave
Format profile : OpenDML
File size : 2.05 GiB
Duration : 1h 57mn
Overall bit rate : 2 509 Kbps
Writing application : VirtualDubMod 1.5.10.3 (build 2550/release)
Writing library : VirtualDubMod build 2550/release
Video #0
ID : 0
Format : MPEG-4 Visual
Format profile : Advanced [email protected]
Format settings, BVOP : 2
Format settings, QPel : No
Format settings, GMC : No warppoints
Format settings, Matrix : Custom
Codec ID : XVID
Codec ID/Hint : XviD
Duration : 1h 57mn
Bit rate : 1 723 Kbps
Width : 720 pixels
Height : 304 pixels
Display aspect ratio : 2.35:1
Frame rate : 23.976 fps
Color space : YUV
Chroma subsampling : 4:2:0
Bit depth : 8 bits
Scan type : Progressive
Compression mode : Lossy
Bits/(Pixel*Frame) : 0.328
Stream size : 1.41 GiB (69%)
Writing library : XviD 1.2.1 (UTC 2008-12-04)
Audio #1
ID : 1
Format : AC-3
Format/Info : Audio Coding 3
Mode extension : CM (complete main)
Format settings, Endianness : Big
Codec ID : 2000
Duration : 1h 57mn
Bit rate mode : Constant
Bit rate : 384 Kbps
Channel(s) : 6 channels
Channel positions : Front: L C R, Side: L R, LFE
Sampling rate : 48.0 KHz
Bit depth : 16 bits
Compression mode : Lossy
Stream size : 321 MiB (15%)
Alignment : Split accross interleaves
Interleave, duration : 42 ms (1.00 video frame)
Interleave, preload duration : 500 ms
Audio #2
ID : 2
Format : AC-3
Format/Info : Audio Coding 3
Mode extension : CM (complete main)
Format settings, Endianness : Big
Codec ID : 2000
Duration : 1h 57mn
Bit rate mode : Constant
Bit rate : 384 Kbps
Channel(s) : 6 channels
Channel positions : Front: L C R, Side: L R, LFE
Sampling rate : 48.0 KHz
Bit depth : 16 bits
Compression mode : Lossy
Stream size : 321 MiB (15%)
Alignment : Split accross interleaves
Interleave, duration : 42 ms (1.00 video frame)
Interleave, preload duration : 500 ms

Создавать темы 23-Май-2014 01:16

[Профиль]  [ЛС] 

ruslanvega

Стаж: 6 лет 7 месяцев

Сообщений: 13

Очень даже хороший фильм. Люк Бессон снова выстрелил. Интересно так же, как и "Из Парижа с любовью" с Траволтой

Создавать темы 05-Июл-2014 16:56

[Профиль]  [ЛС] 

anna140987

Стаж: 4 года 8 месяцев

Сообщений: 97

Симпатии: 12

мне кажется, или постер какой-то странный - большое лицо и маленькая рука (хотя она впереди и должна быть больше). :)

Создавать темы 05-Июл-2014 23:38

[Профиль]  [ЛС] 

ali.mindarov007

Стаж: 5 лет 5 месяцев

Сообщений: 5

851718мне кажется, или постер какой-то странный - большое лицо и маленькая рука (хотя она впереди и должна быть больше). :)
убил))

Создавать темы 01-Сен-2014 22:23

[Профиль]  [ЛС] 
Показать сообщения:    
Ответить на тему

Текущее время: 23-Сен 01:45

Часовой пояс: UTC + 5



Вы не можете начинать темы
Вы не можете отвечать на сообщения
Вы не можете редактировать свои сообщения
Вы не можете удалять свои сообщения
Вы не можете голосовать в опросах
Вы не можете прикреплять файлы к сообщениям
Вы не можете скачивать файлы