Сокровище Серебряного озера / Der Schatz im Silbersee (Харальд Райнль) [1962 г., приключения, вестерн, .., BDRip]

Ответить на тему
 

Cheburashka ®

Стаж: 5 лет 9 месяцев

Сообщений: 54

Симпатии: 41

Сокровище Серебряного озера / Der Schatz im Silbersee«Indian Gold! Blood-Red Fury!» Год выпуска: 1962
Страна: Германия (ФРГ), Югославия, Франция
Жанр: приключения, вестерн, ..
Продолжительность: 01:51:04
Перевод: Профессиональный (многоголосый закадровый), Дублированный (СССР), Дублированный (Английский)--Режиссер: Харальд Райнль--В ролях: Лекс Баркер, Херберт Лом, Пьер Брис, Гёц Георге, Карин Дор, Ральф Вольтер, Эдди Арент, Марианне Хоппе, Мирко Боман, Сима Яничиевич--Описание: Вождь Виннету и Шеттерхенд идут по следу полковника Бринкли — бессовестного негодяя, который во что бы то ни стало хочет заполучить легендарные сокровища Серебряного озера. Герои попадают в плен, и Бринкли первым добирается до пещеры с золотом. Он убивает стража и уже готов сбежать с заветным сокровищем, но умирающий страж приводит в действие секретный механизм, разрушающий пещеру.-- --Качество: BDRip
Формат: MKV
Видео кодек: H.26x
Аудио кодек: AC3
Видео: MPEG4 Video (H264) 1024x404 23.976fps 1 978 Kbps
Аудио #1: 48 kHz, AC3 Dolby Digital, 6 ch, ~448.00 kbps (Многоголосый)
Аудио #2: 48 kHz, AC3 Dolby Digital, 2 ch, ~192.00 kbps (Дубляж)
Аудио #3: 48 kHz, AC3 Dolby Digital, 2 ch, ~192.00 kbps (Английский)
--

MI

General
Unique ID : 188314386847643078223695796543606543942 (0x8DAC081ACBDD383EA42047A53978D646)
Complete name : H:\Кино_1980_2000\Der Schatz im Silbersee.1962.BDRip-AVC.mkv
Format : Matroska
Format version : Version 4 / Version 2
File size : 2.18 GiB
Duration : 1h 51mn
Overall bit rate : 2 812 Kbps
Movie name : Сокровище Серебряного озера / Der Schatz im Silbersee [Remastered] (1962) BDRip-AVC rip by Rulya74
Encoded date : UTC 2013-03-03 20:43:33
Writing application : mkvmerge v6.0.0 ('Coming Up For Air') built on Jan 20 2013 09:52:00
Writing library : libebml v1.3.0 + libmatroska v1.4.0
Video
ID : 1
Format : AVC
Format/Info : Advanced Video Codec
Format profile : [email protected]
Format settings, CABAC : Yes
Format settings, ReFrames : 14 frames
Codec ID : V_MPEG4/ISO/AVC
Duration : 1h 51mn
Bit rate : 1 978 Kbps
Width : 1 024 pixels
Height : 404 pixels
Display aspect ratio : 2.535
Frame rate mode : Constant
Frame rate : 23.976 fps
Color space : YUV
Chroma subsampling : 4:2:0
Bit depth : 8 bits
Scan type : Progressive
Bits/(Pixel*Frame) : 0.199
Stream size : 1.49 GiB (68%)
Writing library : x264 core 129 r2245 bc13772
Encoding settings : cabac=1 / ref=14 / deblock=1:-3:-3 / analyse=0x3:0x133 / me=umh / subme=11 / psy=1 / psy_rd=1.22:0.40 / mixed_ref=1 / me_range=48 / chroma_me=1 / trellis=2 / 8x8dct=1 / cqm=0 / deadzone=21,11 / fast_pskip=0 / chroma_qp_offset=-4 / threads=14 / lookahead_threads=2 / sliced_threads=0 / nr=0 / decimate=1 / interlaced=0 / bluray_compat=0 / constrained_intra=0 / bframes=11 / b_pyramid=2 / b_adapt=2 / b_bias=0 / direct=3 / weightb=1 / open_gop=0 / weightp=2 / keyint=240 / keyint_min=22 / scenecut=40 / intra_refresh=0 / rc_lookahead=40 / rc=2pass / mbtree=1 / bitrate=1978 / ratetol=1.0 / qcomp=0.60 / qpmin=0 / qpmax=69 / qpstep=4 / cplxblur=20.0 / qblur=0.5 / ip_ratio=1.40 / aq=1:1.00
Default : Yes
Forced : No
Audio #1
ID : 2
Format : AC-3
Format/Info : Audio Coding 3
Mode extension : CM (complete main)
Format settings, Endianness : Big
Codec ID : A_AC3
Duration : 1h 51mn
Bit rate mode : Constant
Bit rate : 448 Kbps
Channel(s) : 6 channels
Channel positions : Front: L C R, Side: L R, LFE
Sampling rate : 48.0 KHz
Bit depth : 16 bits
Compression mode : Lossy
Stream size : 356 MiB (16%)
Title : Профессиональный (многоголосый закадровый)
Language : Russian
Default : Yes
Forced : No
Audio #2
ID : 3
Format : AC-3
Format/Info : Audio Coding 3
Mode extension : CM (complete main)
Format settings, Endianness : Big
Codec ID : A_AC3
Duration : 1h 51mn
Bit rate mode : Constant
Bit rate : 192 Kbps
Channel(s) : 2 channels
Channel positions : Front: L R
Sampling rate : 48.0 KHz
Bit depth : 16 bits
Compression mode : Lossy
Stream size : 153 MiB (7%)
Title : Дублированный (СССР)
Language : Russian
Default : No
Forced : No
Audio #3
ID : 4
Format : AC-3
Format/Info : Audio Coding 3
Mode extension : CM (complete main)
Format settings, Endianness : Big
Codec ID : A_AC3
Duration : 1h 51mn
Bit rate mode : Constant
Bit rate : 192 Kbps
Channel(s) : 2 channels
Channel positions : Front: L R
Sampling rate : 48.0 KHz
Bit depth : 16 bits
Compression mode : Lossy
Stream size : 153 MiB (7%)
Title : Дублированный (Английский)
Language : English
Default : No
Forced : No

Скриншоты

--

Создавать темы 24-Май-2014 11:30

[Профиль]  [ЛС] 
Показать сообщения:    
Ответить на тему

Текущее время: 21-Ноя 11:02

Часовой пояс: UTC + 5



Вы не можете начинать темы
Вы не можете отвечать на сообщения
Вы не можете редактировать свои сообщения
Вы не можете удалять свои сообщения
Вы не можете голосовать в опросах
Вы не можете прикреплять файлы к сообщениям
Вы не можете скачивать файлы