Охотницы / Joseonminyeo Samchongsa (Jae-Hyun Park) (Исторический, Боевик, Комедия, 2014, HDTVRip)

Ответить на тему
 

NeymaR ®

Стаж: 3 года 10 месяцев

Сообщений: 68

Симпатии: 16

Охотницы / Joseonminyeo Samchongsa- Год выхода: 2014
Страна: Корея Южная pic
Жанр: Исторический, Боевик, Комедия
Продолжительность: 01:47:21
Перевод: Многоголосый, закадровый [GREEN TEA]-Режиссер: Пак Чжэ Хён-В ролях: Ха Чжи Вон, Кан Йе Вон, Сон Га Ин, Sang-uk Ju, Ко Чан Сок, Пак Дон Бин-Описание: Период династии Чосон. Три красивых девушки-мушкетера ведут борьбу с мощной группой, которая пытается свергнуть королевскую семью и получить абсолютную власть. Лидером мушкетеров является Джин-Ок, умная и праведная женщина. Хонг-Дан единственная замужняя женщина из трех. Самая молодая, Га-Би, превосходит остальных в драке.-Качество: HDTVRip
Формат: Avi
Видео кодек: XVID
Аудио кодек: MP3
Видео: XVID | 720 x 304 | 23.976 fps | 1748 Кбит/сек
Аудио: MP3 | 48000Hz | stereo | 192kbps
- -

MediaInfo

General
Complete name : [GREEN TEA] Охотницы.avi
Format : AVI
Format/Info : Audio Video Interleave
File size : 1.46 GiB
Duration : 1h 47mn
Overall bit rate : 1 950 Kbps
Writing application : VirtualDubMod 1.5.10.3 | www.virtualdub-fr.org || (build 2550/release)
Writing library : VirtualDub build 32842/release
Video
ID : 0
Format : MPEG-4 Visual
Format profile : Advanced [email protected]
Format settings, BVOP : 1
Format settings, QPel : No
Format settings, GMC : No warppoints
Format settings, Matrix : Custom
Codec ID : XVID
Codec ID/Hint : XviD
Duration : 1h 47mn
Bit rate : 1 748 Kbps
Width : 720 pixels
Height : 304 pixels
Display aspect ratio : 2.35:1
Frame rate : 23.976 fps
Color space : YUV
Chroma subsampling : 4:2:0
Bit depth : 8 bits
Scan type : Progressive
Compression mode : Lossy
Bits/(Pixel*Frame) : 0.333
Stream size : 1.31 GiB (90%)
Writing library : XviD 1.2.1 (UTC 2008-12-04)
Audio
ID : 1
Format : MPEG Audio
Format version : Version 1
Format profile : Layer 3
Mode : Joint stereo
Codec ID : 55
Codec ID/Hint : MP3
Duration : 1h 47mn
Bit rate mode : Constant
Bit rate : 192 Kbps
Channel(s) : 2 channels
Sampling rate : 48.0 KHz
Compression mode : Lossy
Stream size : 147 MiB (10%)
Alignment : Split accross interleaves
Interleave, duration : 42 ms (1.00 video frame)
Interleave, preload duration : 500 ms

Скриншоты

Создавать темы 24-Май-2014 12:22

[Профиль]  [ЛС] 

}{@ttabi4

Стаж: 6 лет 4 месяца

Сообщений: 139

Симпатии: 29

Азиатские фильмы

Создавать темы 24-Май-2014 13:25

[Профиль]  [ЛС] 

farik9193

Стаж: 4 года 10 месяцев

Сообщений: 501

Симпатии: 47

Думаю фильм стоит моих нервов =)))

Создавать темы 24-Май-2014 15:05

[Профиль]  [ЛС] 

Топик был перенесен из форума Фильмы за 2014 (новинки) в форум Азиатские фильмы
Suxrob89

Создавать темы 24-Май-2014 15:07

 
Показать сообщения:    
Ответить на тему

Текущее время: 23-Сен 16:12

Часовой пояс: UTC + 5



Вы не можете начинать темы
Вы не можете отвечать на сообщения
Вы не можете редактировать свои сообщения
Вы не можете удалять свои сообщения
Вы не можете голосовать в опросах
Вы не можете прикреплять файлы к сообщениям
Вы не можете скачивать файлы