Альфа Дог / Alpha Dog (Ник Кассаветис) [2005 г., драма , криминал, DVD9-HDRip] [Dub+Eng]

Ответить на тему
 

siyovush101 ®

Стаж: 3 года 9 месяцев

Сообщений: 205

Симпатии: 71

Альфа Дог / Alpha Dog / Ник Кассаветис / DVD-HDRip«Одно преступление. 3 дня. 38 свидетелей»
Год выпуска: 2005
Страна: США
Жанр: драма , криминал
Продолжительность: 112 мин. / 01:52:00
Перевод: Профессиональный (полное дублирование)
Режиссер: Ник Кассаветис
Рейтинг 7.59 (КиноПоиск)-В ролях: Эмиль Хирш, Джастин Тимберлейк, , Брюс Уиллис, Антон Ельчин, Шэрон Стоун, Оливия Уайлд и др.-Описание: Для подростков элитных районов Лос-Анджелеса, у которых слишком много времени и слишком много денег, унылые дни тянутся один за другим. Они развлекаются тем, что играют в головорезов и поклоняются рэпу, видеоиграм и кинофильмам. Когда не несешь ни за что ответственности, случиться может все, что угодно... Джонни Трулав (Эмиль Хирш) контролирует наркотраффик на улицах своего родного района. Куда бы он ни пошел, везде его сопровождают крутая банда, красивые девушки и безбашенное веселье. Методы работы у Джонни, надо сказать, весьма жесткие: когда он вовремя не получает денег от сорвиголовы Джека (Бен Фостер), то похищает его младшего брата Зака, делая из него приманку в Палм-Спрингс. Поначалу Зак радуется такому положению дел и наслаждается запретными радостями, новым жизненным опытом: выпивкой и девочками. Проходит время… Но никто не интересуется судьбой пленника банды Трулава, тем более никто не спешит вернуть им деньги. Что теперь делать с заложником? Просто вернуть должникам — значит проиграть. Джонни не знает, как им выбраться из сложившейся ситуации. Его дружки потихоньку отдаляются от него, он хочет остановить их любым путем. Веселенькое приключение заканчивается скверно: всех участников истории Джонни ведет к ужасающей развязке, о которой никто из его приятелей даже и не догадывался….-Дополнительная Информация
Рипачил Сам с Двухслойного Диска [Лицензия] Размер Урезан с 6.80 Gb до 4.86 Gb
Фильм основан на Реальной Истории! Джони Трулава Поймали только в 2009 и Дали Пожизненное! Не Смотрите криво На Скриншоты! На ХД Телевизоре Качество Намного Лучше чем на HDRip И Ещё для Особо Одарённых я Всё Сделал Правильно! и Соотношение Сторон При Просмотре 16:9 (тобиж на Весь Экран) Не Убивайте Мой Мозг Своей Гениальностью..В Личных Сообщениях...А Так Же Мог Сделать 1280х720 Качество будет Одинаковое! а Файл будет Весить Больше! главное кодек видео файла и его битрейт для тех кто не в курсе-Качество:DVD9
Формат:MKV
Видео кодек:V_MPEG2
Аудио кодек:AC3
Видео:4862 Kb/s / 720x576 / 25000 fps
Аудио: AC 3 / 6 ch. / 448 Kb/s [RU]
Аудио: DTS /6 ch. / 755 Kb/s [ENG]

Скриншоты




MI

Format : Matroska
Format version : Version 4 / Version 2
File size : 4.86 GiB
Duration : 1h 52mn
Overall bit rate mode : Variable
Overall bit rate : 6 188 Kbps
Encoded date : UTC 2014-04-25 19:46:40
Writing application : mkvmerge v6.7.0 ('Back to the Ground') 32bit built on Jan 8 2014 15:03:17
Writing library : libebml v1.3.0 + libmatroska v1.4.1
Video #1
ID : 1
Format : MPEG Video
Format version : Version 2
Format profile : [email protected]
Format settings, BVOP : No
Format settings, Matrix : Custom
Codec ID : V_MPEG2
Codec ID/Info : MPEG 1 or 2 Video
Bit rate mode : Variable
Bit rate : 4 862 Kbps
Maximum bit rate : 8 000 Kbps
Width : 720 pixels
Height : 576 pixels
Display aspect ratio : 16:9
Original frame rate : 25.000 fps
Standard : PAL
Color space : YUV
Chroma subsampling : 4:2:0
Bit depth : 8 bits
Scan type : Interlaced
Scan order : Top Field First
Compression mode : Lossy
Default : Yes
Forced : No
Audio #2
ID : 2
Format : AC-3
Format/Info : Audio Coding 3
Mode extension : CM (complete main)
Format settings, Endianness : Big
Codec ID : A_AC3
Duration : 1h 52mn
Bit rate mode : Constant
Bit rate : 448 Kbps
Channel(s) : 6 channels
Channel positions : Front: L C R, Side: L R, LFE
Sampling rate : 48.0 KHz
Bit depth : 16 bits
Compression mode : Lossy
Delay relative to video : 231ms
Stream size : 360 MiB (7%)
Default : Yes
Forced : No
Audio #3
ID : 3
Format : DTS
Format/Info : Digital Theater Systems
Codec ID : A_DTS
Duration : 1h 52mn
Bit rate mode : Constant
Bit rate : 755 Kbps
Channel(s) : 6 channels
Channel positions : Front: L C R, Side: L R, LFE
Sampling rate : 48.0 KHz
Bit depth : 24 bits
Compression mode : Lossy
Delay relative to video : -80ms
Stream size : 607 MiB (12%)
Default : No
Forced : No

Создавать темы 24-Май-2014 16:33

[Профиль]  [ЛС] 

siyovush101 ®

Стаж: 3 года 9 месяцев

Сообщений: 205

Симпатии: 71

Вот Вам Качество Изображения Фильма! и Будет он в 16:9! скрины узкие потомучто пиксели маленькие!

Создавать темы 25-Май-2014 12:30

[Профиль]  [ЛС] 

siyovush101 ®

Стаж: 3 года 9 месяцев

Сообщений: 205

Симпатии: 71

Скачавшие Совесть Имейте Сидируйте! Борзеют Смотрю Многие На Сайте! у 80% ни одного своего Релиза! Текинхоры мля! Релизер Раздал 25 гб (500%)

Создавать темы 29-Май-2014 10:51

[Профиль]  [ЛС] 

Agness

Стаж: 5 лет 6 месяцев

Сообщений: 208

Симпатии: 10

833656Вот Вам Качество Изображения Фильма! и Будет он в 16:9! скрины узкие потомучто пиксели маленькие!
пиксели маленькие?

Создавать темы 26-Июн-2014 12:28

[Профиль]  [ЛС] 

siyovush101 ®

Стаж: 3 года 9 месяцев

Сообщений: 205

Симпатии: 71

848284
833656Вот Вам Качество Изображения Фильма! и Будет он в 16:9! скрины узкие потомучто пиксели маленькие!
пиксели маленькие?
по парился...разрешение! пикселей)

Создавать темы 27-Июн-2014 16:54

[Профиль]  [ЛС] 
Показать сообщения:    
Ответить на тему

Текущее время: 21-Ноя 11:18

Часовой пояс: UTC + 5



Вы не можете начинать темы
Вы не можете отвечать на сообщения
Вы не можете редактировать свои сообщения
Вы не можете удалять свои сообщения
Вы не можете голосовать в опросах
Вы не можете прикреплять файлы к сообщениям
Вы не можете скачивать файлы