Против природы / Against the Wild (Ричард Боддингтон / Richard Boddington) [2014, Канада, приключения, семейный, драма, WEB-DLRip] VO (R.A.I.M) + Sub Rus (adamovna)

Ответить на тему
 

razor2011 ®

Стаж: 5 лет 1 месяц

Сообщений: 227

Симпатии: 37

Против природы<>-----------------------------------------------------------<>Against the Wild- Страна: Канада
Жанр: Приключения, семейный, драма
Продолжительность: 01:32:26
Год выпуска: 2014
Перевод: : Одноголосый закадровый (R.A.I.M)
Субтитры: Русские (adamovna), английские (SRT)--Режиссёр: Ричард Боддингтон / Richard Boddington--В ролях: С.Дж. Адамс / CJ Adams, Эрин Питт/ Erin Pitt, Наташа Хенстридж / Natasha Henstridge, Тед Уиттэлл / Ted Whittall, Джон Тенч / John Tench, Рейнбоу Фрэнкс / Rainbow Francks, Грег Кэмпбелл / Greg Campbell, Сара Дикинс/ Sarah Deakins, Дженнифер Гибсон / Jennifer Gibson-Описание: Брат с сестрой и аляскинский маламут - их преданный пес - после авиационной катастрофы оказываются в той части Аляски, где царят первозданная красота и природная жестокость. Спасатели отправляются на их поиски, родители страшно переживают за своих детей. Но пока придет помощь, пройдет немало времени. Им придется объединить все свои навыки, забыть прежние обиды и научиться доверять друг другу, чтобы вырваться из этого плена. --Доп. информация:
 
-Качество: WEB-DLRip
Формат: avi
Видео: XviD, 2 029 Kbps, 720 x 400, 16:9, 23.976 fps
Аудио1: AC3, 2 ch, 192 kbps, 48 kHz | VO (R.A.I.M)
Формат субтитров: Русские, английские (SRT)
-

MediaInfo

General
Complete name : D:\фильмы\Against the Wild (2014)\Against the Wild (2014).avi
Format : AVI
Format/Info : Audio Video Interleave
File size : 1.49 GiB
Duration : 1h 32mn
Overall bit rate : 2 308 Kbps
Writing application : VirtualDubMod 1.5.10.3 | www.virtualdub-fr.org || (build 2550/release)
Writing library : VirtualDubMod build 2550/release
Video #0
ID : 0
Format : MPEG-4 Visual
Format profile : Advanced [email protected]
Format settings, BVOP : 1
Format settings, QPel : No
Format settings, GMC : No warppoints
Format settings, Matrix : Default (MPEG)
Codec ID : XVID
Codec ID/Hint : XviD
Duration : 1h 32mn
Bit rate : 2 029 Kbps
Width : 720 pixels
Height : 400 pixels
Display aspect ratio : 16:9
Frame rate : 23.976 fps
Color space : YUV
Chroma subsampling : 4:2:0
Bit depth : 8 bits
Scan type : Progressive
Compression mode : Lossy
Bits/(Pixel*Frame) : 0.294
Stream size : 1.31 GiB (88%)
Writing library : XviD 1.2.1 (UTC 2008-12-04)
Audio #1
ID : 1
Format : AC-3
Format/Info : Audio Coding 3
Mode extension : CM (complete main)
Format settings, Endianness : Big
Codec ID : 2000
Duration : 1h 32mn
Bit rate mode : Constant
Bit rate : 192 Kbps
Channel(s) : 2 channels
Channel positions : Front: L R
Sampling rate : 48.0 KHz
Bit depth : 16 bits
Compression mode : Lossy
Stream size : 127 MiB (8%)
Alignment : Split accross interleaves
Interleave, duration : 42 ms (1.00 video frame)
Interleave, preload duration : 500 ms

Скриншоты



Создавать темы 26-Май-2014 14:23

[Профиль]  [ЛС] 

hood1k

Стаж: 4 года 9 месяцев

Сообщений: 91

Симпатии: 3

Как фильм? стоит качать и смотреть?

Создавать темы 29-Май-2014 14:14

[Профиль]  [ЛС] 

razor2011 ®

Стаж: 5 лет 1 месяц

Сообщений: 227

Симпатии: 37

835350Как фильм? стоит качать и смотреть?
фильм достойный

Создавать темы 29-Май-2014 14:22

[Профиль]  [ЛС] 

showtek

Стаж: 6 лет 11 месяцев

Сообщений: 68

Симпатии: 2

TV3

Создавать темы 29-Май-2014 20:43

[Профиль]  [ЛС] 

TimaK

Стаж: 6 лет 5 месяцев

Сообщений: 129

Симпатии: 23

hood1k, а что ты теряешь скачав?

Создавать темы 02-Июн-2014 11:12

[Профиль]  [ЛС] 

fera96

Стаж: 5 лет 9 месяцев

Сообщений: 15

836773hood1k, а что ты теряешь скачав?
Время на скачиваение + время на просмотр

Создавать темы 02-Июн-2014 23:03

[Профиль]  [ЛС] 

sem

Стаж: 7 лет

Сообщений: 123

Симпатии: 6

837135
836773hood1k, а что ты теряешь скачав?
Время на скачиваение + время на просмотр
зачем тогда вообще сидиш на сайте))

Создавать темы 08-Июн-2014 08:29

[Профиль]  [ЛС] 

hard92

Стаж: 4 года 11 месяцев

Сообщений: 60

зачем тогда вообще сидиш на сайте))
а зачем кушать можно и не кушать

Создавать темы 08-Июн-2014 21:31

[Профиль]  [ЛС] 

GhostShooter

Стаж: 5 лет 1 месяц

Сообщений: 52

840025
зачем тогда вообще сидиш на сайте))
а зачем кушать можно и не кушать
полностью согласен. А зачем жить, если можно не жить?

Создавать темы 18-Июн-2014 20:51

[Профиль]  [ЛС] 

2567705

Стаж: 4 года 7 месяцев

Сообщений: 4

Симпатии: 2

зачем говорить всякую фигню когда можно и не говорить ?

Создавать темы 23-Июн-2014 18:08

[Профиль]  [ЛС] 

Libra

Стаж: 4 года 7 месяцев

Сообщений: 20

Симпатии: 1

847187зачем говорить всякую фигню когда можно и не говорить ?
Зачем говорить всякую фигню когда можно молчать так красивее :D
а так вообще то писать

Создавать темы 23-Июн-2014 22:35

[Профиль]  [ЛС] 

wamik

Стаж: 4 года 2 месяца

Сообщений: 66

Симпатии: 3

так что с фильмом-то, болтуны??

Создавать темы 23-Июн-2014 23:02

[Профиль]  [ЛС] 

anna140987

Стаж: 4 года 9 месяцев

Сообщений: 97

Симпатии: 12

Фильм детский, или есть драматические моменты?

Создавать темы 30-Июн-2014 02:17

[Профиль]  [ЛС] 

narmayax

Стаж: 3 года 11 месяцев

Сообщений: 15

Симпатии: 1

Фильм-Реальное-Безбожное У.Г!

Создавать темы 30-Июн-2014 18:54

[Профиль]  [ЛС] 
Показать сообщения:    
Ответить на тему

Текущее время: 23-Окт 07:45

Часовой пояс: UTC + 5



Вы не можете начинать темы
Вы не можете отвечать на сообщения
Вы не можете редактировать свои сообщения
Вы не можете удалять свои сообщения
Вы не можете голосовать в опросах
Вы не можете прикреплять файлы к сообщениям
Вы не можете скачивать файлы