Вечера на хуторе близ Диканьки (Александр Роу) [1961 г., фэнтези, мелодрама, комедия, DVDRip]

Ответить на тему
 

jetxz ®

Стаж: 4 года 2 месяца

Сообщений: 137

Симпатии: 2

Вечера на хуторе близ Диканьки- -Год выпуска: 1961
Жанр: фэнтези, мелодрама, комедия
Продолжительность: 01:06:00-Режиссер: Александр Роу-В ролях: Юрий Тавров (кузнец Вакула), Людмила Хитяева (Солоха), Георгий Милляр (чёрт), Александр Хвыля (казак Чуб), Сергей Мартинсон (дьяк Осип Никифорович), Анатолий Кубацкий (кум Панас), Александр Радунский (Голова), Дмитрий Капка (ткач Шапуваленко), Николай Яковченко (Пацюк), Людмила Мызникова (Оксана), Вера Алтайская (жена кума Панаса), Марина Сидорчук (Одарка, подруга Оксаны)-Описание: Веселая история про то, как в рождественскую ночь в украинском селе всех попутал бес и как могучему кузнецу Вакуле удалось одолеть нечистую силу и добыть для своей невесты царские черевички. Экранизация повести Н. В. Гоголя «Ночь перед Рождеством»-Качество: DVDRip
Формат: MKV
Аудио кодек: AC3
Видео: AVC, 720x540 (4:3), 2694 kbps, 25 fps, 0.277 bpp
Аудио: русский / AC3 / 5.1 / 48 kHz / 448 kbps-

MediaInfo

General
Unique ID : 234620281995176039010965964276410730891 (0xB08239009B55CE57BD38BE9E5575C98B)
Complete name : Vechera.Na.Hutore.DVDRipAVC.mkv
Format : Matroska
Format version : Version 2
File size : 1.45 GiB
Duration : 1h 6mn
Overall bit rate : 3 144 Kbps
Movie name : = Вечера на хуторе близ Диканьки DVDRip by SC Kosmos =
Encoded date : UTC 2012-12-24 07:54:05
Writing application : mkvmerge v3.3.0 ('Language') gebaut am Mar 24 2010 14:59:24
Writing library : libebml v0.8.0 + libmatroska v0.9.0
Video
ID : 1
Format : AVC
Format/Info : Advanced Video Codec
Format profile : [email protected]
Format settings, CABAC : Yes
Format settings, ReFrames : 10 frames
Codec ID : V_MPEG4/ISO/AVC
Duration : 1h 6mn
Bit rate : 2 694 Kbps
Width : 720 pixels
Height : 540 pixels
Display aspect ratio : 4:3
Frame rate mode : Constant
Frame rate : 25.000 fps
Color space : YUV
Chroma subsampling : 4:2:0
Bit depth : 8 bits
Scan type : Progressive
Bits/(Pixel*Frame) : 0.277
Stream size : 1.21 GiB (84%)
Title : Вечера на хуторе близ Диканьки DVDRip by SC Kosmos
Writing library : x264 core 129 r2230 1cffe9f
Encoding settings : cabac=1 / ref=10 / deblock=1:-3:-3 / analyse=0x3:0x112 / me=umh / subme=10 / psy=1 / psy_rd=1.00:0.15 / mixed_ref=1 / me_range=32 / chroma_me=1 / trellis=2 / 8x8dct=1 / cqm=0 / deadzone=21,11 / fast_pskip=1 / chroma_qp_offset=-3 / threads=12 / lookahead_threads=2 / sliced_threads=0 / nr=0 / decimate=1 / interlaced=0 / bluray_compat=0 / constrained_intra=0 / bframes=8 / b_pyramid=2 / b_adapt=1 / b_bias=0 / direct=3 / weightb=1 / open_gop=0 / weightp=1 / keyint=250 / keyint_min=25 / scenecut=40 / intra_refresh=0 / rc=2pass / mbtree=0 / bitrate=2694 / ratetol=1.0 / qcomp=0.60 / qpmin=0 / qpmax=69 / qpstep=4 / cplxblur=20.0 / qblur=0.5 / ip_ratio=1.40 / pb_ratio=1.30 / aq=1:1.00
Language : Russian
Default : No
Forced : No
Color primaries : BT.601 PAL
Transfer characteristics : BT.470 System B, BT.470 System G
Matrix coefficients : BT.601
Audio
ID : 2
Format : AC-3
Format/Info : Audio Coding 3
Mode extension : CM (complete main)
Format settings, Endianness : Big
Codec ID : A_AC3
Duration : 1h 6mn
Bit rate mode : Constant
Bit rate : 448 Kbps
Channel count : 6 channels
Channel positions : Front: L C R, Side: L R, LFE
Sampling rate : 48.0 KHz
Bit depth : 16 bits
Compression mode : Lossy
Stream size : 211 MiB (14%)
Language : Russian
Default : Yes
Forced : No

Скриншоты

Создавать темы 27-Май-2014 20:33

[Профиль]  [ЛС] 

jetxz ®

Стаж: 4 года 2 месяца

Сообщений: 137

Симпатии: 2

ads

Создавать темы 27-Май-2014 20:36

[Профиль]  [ЛС] 

drongouz

Стаж: 5 лет 6 месяцев

Сообщений: 2

Симпатии: 1

почему не скачивается?

Создавать темы 02-Янв-2016 14:53

[Профиль]  [ЛС] 

izmayl

Стаж: 6 лет 4 месяца

Сообщений: 2

странно - полного источника никогда не было, а скачан 27(!) раз!

Создавать темы 21-Май-2017 14:57

[Профиль]  [ЛС] 
Показать сообщения:    
Ответить на тему

Текущее время: 20-Сен 21:23

Часовой пояс: UTC + 5



Вы не можете начинать темы
Вы не можете отвечать на сообщения
Вы не можете редактировать свои сообщения
Вы не можете удалять свои сообщения
Вы не можете голосовать в опросах
Вы не можете прикреплять файлы к сообщениям
Вы не можете скачивать файлы