National Geographic. Тайная жизнь хищников / Secret Life of Predators (Джаред Липворт) [серии 01-04 из 04] [2013, Документальный, флора, фауна, HDTVRip-AVC]

Ответить на тему
 

razor2011 ®

Стаж: 4 года 11 месяцев

Сообщений: 227

Симпатии: 37

Тайная жизнь хищников / Secret Life of Predators-
Год выпуска: 2013
Страна: США, Television
Жанр: Документальный, флора, фауна
Продолжительность: 4 x ~ 00:43:43
Перевод: Профессиональный (дублированный)
Русские субтитры: нет-Режиссер: Джаред Липворт
Описание: Это сенсационное погружение в среду самых страшных хищников планеты раскрывается через невероятную съемку и самые современные технологии кинопроизводства ... некоторые приемы съемки были изобретены специально для этого новаторского телепроекта.-
Качество: HDTVRip-AVC
Формат: MKV
Видео: MPEG-4 AVC, 1024x576, 25.000 fps, (16:9), ~1850 kbps avg, 0.12 bit/pixel
Аудио: 48.0 kHz, AC3 Dolby Digital, 2.0 ch (L,R,), ~256.00 kbps avg-

Список выпусков/серий

1. Тайная жизнь хищников. На виду: Хищники, обитающие на открытых пространствах, должны уметь прятаться будучи у всех на виду или же, как полосатый мангуст, брать числом.
2. Тайная жизнь хищников. В воде: В водах нашей планеты хищники всех форм и размеров встречают множество преград на пути к успеху и выживанию.
3. Тайная жизнь хищников. На границе: Обитающие на границах гор, лесов, рек и океанов природные охотники должны иметь особые навыки, чтобы выжить.
4. Тайная жизнь хищников. В лесах: Лесные хищники должны уметь жить в мире, где пища или соперники могут находиться сзади, внизу или вверху.

MediaInfo

ОбщееУникальный идентификатор : 230801401935710750243654697867412536239 (0xADA2BBADB76EC405A466A29019007BAF)Полное имя : A:\Фильмы\Secret Life of Predators .2013.(01-04 of 04).x264.HDTVRip.(AVC).by.F-Torrents\Tainay.jizn.hishikov.na.granice.2013.x264.HDTVRip.(AVC).mkvФормат : MatroskaВерсия формата : Version 2Размер файла : 664 МбайтПродолжительность : 44 м.Общий поток : 2108 Кбит/секНазвание фильма : Release for MediaClub by AlexAndr92Дата кодирования : UTC 2013-11-02 22:19:31Программа кодирования : mkvmerge v5.8.0 ('No Sleep / Pillow') built on Sep 2 2012 15:37:04Библиотека кодирования : libebml v1.2.3 + libmatroska v1.3.0
ВидеоИдентификатор : 1Формат : AVCФормат/Информация : Advanced Video CodecПрофиль формата : [email protected]Параметр CABAC формата : ДаПараметр ReFrames формата : 4 кадраИдентификатор кодека : V_MPEG4/ISO/AVCПродолжительность : 44 м.Битрейт : 1850 Кбит/секШирина : 1024 пикселяВысота : 576 пикселейСоотношение сторон : 16:9Режим частоты кадров : ПостоянныйЧастота кадров : 25,000 кадров/секЦветовое пространство : YUVСубдискретизация насыщенности : 4:2:0Битовая глубина : 8 битТип развёртки : ПрогрессивнаяБит/(Пиксели*Кадры) : 0.125Размер потока : 570 Мбайт (86%)Библиотека кодирования : x264 core 125 r2208 d9d2288Настройки программы : cabac=1 / ref=3 / deblock=1:-1:-1 / analyse=0x3:0x131 / me=umh / subme=9 / psy=1 / psy_rd=1.00:0.15 / mixed_ref=1 / me_range=32 / chroma_me=1 / trellis=2 / 8x8dct=1 / cqm=0 / deadzone=21,11 / fast_pskip=0 / chroma_qp_offset=-3 / threads=12 / lookahead_threads=2 / sliced_threads=0 / nr=0 / decimate=1 / interlaced=0 / bluray_compat=0 / constrained_intra=0 / bframes=3 / b_pyramid=2 / b_adapt=0 / b_bias=0 / direct=1 / weightb=1 / open_gop=0 / weightp=2 / keyint=250 / keyint_min=25 / scenecut=40 / intra_refresh=0 / rc_lookahead=50 / rc=2pass / mbtree=1 / bitrate=1850 / ratetol=1.0 / qcomp=0.60 / qpmin=0 / qpmax=69 / qpstep=4 / cplxblur=20.0 / qblur=0.5 / ip_ratio=1.40 / aq=1:1.00Default : ДаForced : Нет
АудиоИдентификатор : 2Формат : AC-3Формат/Информация : Audio Coding 3Расширение режима : CM (complete main)Параметр Endianness формата : BigИдентификатор кодека : A_AC3Продолжительность : 44 м.Вид битрейта : ПостоянныйБитрейт : 256 Кбит/секКаналы : 2 каналаРасположение каналов : Front: L RЧастота : 48,0 КГцБитовая глубина : 16 битМетод сжатия : С потерямиРазмер потока : 80,6 Мбайт (12%)Default : НетForced : Нет
ОбщееУникальный идентификатор : 221371303244237034901774968723465579914 (0xA68A8FEAACDE087A8580232153682D8A)Полное имя : A:\Фильмы\Secret Life of Predators .2013.(01-04 of 04).x264.HDTVRip.(AVC).by.F-Torrents\Tainay.jizn.hishikov.na.vidu.2013.x264.HDTVRip.(AVC).mkvФормат : MatroskaВерсия формата : Version 2Размер файла : 663 МбайтПродолжительность : 43 м.Общий поток : 2107 Кбит/секНазвание фильма : Release for MediaClub by AlexAndr92Дата кодирования : UTC 2013-11-02 23:10:09Программа кодирования : mkvmerge v5.8.0 ('No Sleep / Pillow') built on Sep 2 2012 15:37:04Библиотека кодирования : libebml v1.2.3 + libmatroska v1.3.0
ВидеоИдентификатор : 1Формат : AVCФормат/Информация : Advanced Video CodecПрофиль формата : [email protected]Параметр CABAC формата : ДаПараметр ReFrames формата : 4 кадраИдентификатор кодека : V_MPEG4/ISO/AVCПродолжительность : 43 м.Битрейт : 1850 Кбит/секШирина : 1024 пикселяВысота : 576 пикселейСоотношение сторон : 16:9Режим частоты кадров : ПостоянныйЧастота кадров : 25,000 кадров/секЦветовое пространство : YUVСубдискретизация насыщенности : 4:2:0Битовая глубина : 8 битТип развёртки : ПрогрессивнаяБит/(Пиксели*Кадры) : 0.125Размер потока : 569 Мбайт (86%)Библиотека кодирования : x264 core 125 r2208 d9d2288Настройки программы : cabac=1 / ref=3 / deblock=1:-1:-1 / analyse=0x3:0x131 / me=umh / subme=9 / psy=1 / psy_rd=1.00:0.15 / mixed_ref=1 / me_range=32 / chroma_me=1 / trellis=2 / 8x8dct=1 / cqm=0 / deadzone=21,11 / fast_pskip=0 / chroma_qp_offset=-3 / threads=12 / lookahead_threads=2 / sliced_threads=0 / nr=0 / decimate=1 / interlaced=0 / bluray_compat=0 / constrained_intra=0 / bframes=3 / b_pyramid=2 / b_adapt=0 / b_bias=0 / direct=1 / weightb=1 / open_gop=0 / weightp=2 / keyint=250 / keyint_min=25 / scenecut=40 / intra_refresh=0 / rc_lookahead=50 / rc=2pass / mbtree=1 / bitrate=1850 / ratetol=1.0 / qcomp=0.60 / qpmin=0 / qpmax=69 / qpstep=4 / cplxblur=20.0 / qblur=0.5 / ip_ratio=1.40 / aq=1:1.00Default : ДаForced : Нет
АудиоИдентификатор : 2Формат : AC-3Формат/Информация : Audio Coding 3Расширение режима : CM (complete main)Параметр Endianness формата : BigИдентификатор кодека : A_AC3Продолжительность : 43 м.Вид битрейта : ПостоянныйБитрейт : 256 Кбит/секКаналы : 2 каналаРасположение каналов : Front: L RЧастота : 48,0 КГцБитовая глубина : 16 битМетод сжатия : С потерямиРазмер потока : 80,5 Мбайт (12%)Default : НетForced : Нет
ОбщееУникальный идентификатор : 232375249691982052637141574234063024945 (0xAED1D85D2AE87846A9A50928D500B331)Полное имя : A:\Фильмы\Secret Life of Predators .2013.(01-04 of 04).x264.HDTVRip.(AVC).by.F-Torrents\Tainay.jizn.hishikov.v.lesah.2013.x264.HDTVRip.(AVC).mkvФормат : MatroskaВерсия формата : Version 2Размер файла : 662 МбайтПродолжительность : 43 м.Общий поток : 2108 Кбит/секНазвание фильма : Release for MediaClub by AlexAndr92Дата кодирования : UTC 2013-11-02 23:58:16Программа кодирования : mkvmerge v5.8.0 ('No Sleep / Pillow') built on Sep 2 2012 15:37:04Библиотека кодирования : libebml v1.2.3 + libmatroska v1.3.0
ВидеоИдентификатор : 1Формат : AVCФормат/Информация : Advanced Video CodecПрофиль формата : [email protected]Параметр CABAC формата : ДаПараметр ReFrames формата : 4 кадраИдентификатор кодека : V_MPEG4/ISO/AVCПродолжительность : 43 м.Битрейт : 1850 Кбит/секШирина : 1024 пикселяВысота : 576 пикселейСоотношение сторон : 16:9Режим частоты кадров : ПостоянныйЧастота кадров : 25,000 кадров/секЦветовое пространство : YUVСубдискретизация насыщенности : 4:2:0Битовая глубина : 8 битТип развёртки : ПрогрессивнаяБит/(Пиксели*Кадры) : 0.125Размер потока : 569 Мбайт (86%)Библиотека кодирования : x264 core 125 r2208 d9d2288Настройки программы : cabac=1 / ref=3 / deblock=1:-1:-1 / analyse=0x3:0x131 / me=umh / subme=9 / psy=1 / psy_rd=1.00:0.15 / mixed_ref=1 / me_range=32 / chroma_me=1 / trellis=2 / 8x8dct=1 / cqm=0 / deadzone=21,11 / fast_pskip=0 / chroma_qp_offset=-3 / threads=12 / lookahead_threads=2 / sliced_threads=0 / nr=0 / decimate=1 / interlaced=0 / bluray_compat=0 / constrained_intra=0 / bframes=3 / b_pyramid=2 / b_adapt=0 / b_bias=0 / direct=1 / weightb=1 / open_gop=0 / weightp=2 / keyint=250 / keyint_min=25 / scenecut=40 / intra_refresh=0 / rc_lookahead=50 / rc=2pass / mbtree=1 / bitrate=1850 / ratetol=1.0 / qcomp=0.60 / qpmin=0 / qpmax=69 / qpstep=4 / cplxblur=20.0 / qblur=0.5 / ip_ratio=1.40 / aq=1:1.00Default : ДаForced : Нет
АудиоИдентификатор : 2Формат : AC-3Формат/Информация : Audio Coding 3Расширение режима : CM (complete main)Параметр Endianness формата : BigИдентификатор кодека : A_AC3Продолжительность : 43 м.Вид битрейта : ПостоянныйБитрейт : 256 Кбит/секКаналы : 2 каналаРасположение каналов : Front: L RЧастота : 48,0 КГцБитовая глубина : 16 битМетод сжатия : С потерямиРазмер потока : 80,4 Мбайт (12%)Default : НетForced : Нет
ОбщееУникальный идентификатор : 177843192987258593169869130119175661306 (0x85CB5A635132E0F9B08F0F2BFCB2E6FA)Полное имя : A:\Фильмы\Secret Life of Predators .2013.(01-04 of 04).x264.HDTVRip.(AVC).by.F-Torrents\Tainay.jizn.hishikov.v.vode.2013.x264.HDTVRip.(AVC).mkvФормат : MatroskaВерсия формата : Version 2Размер файла : 663 МбайтПродолжительность : 43 м.Общий поток : 2108 Кбит/секНазвание фильма : Release for MediaClub by AlexAndr92Дата кодирования : UTC 2013-11-03 00:48:12Программа кодирования : mkvmerge v5.8.0 ('No Sleep / Pillow') built on Sep 2 2012 15:37:04Библиотека кодирования : libebml v1.2.3 + libmatroska v1.3.0
ВидеоИдентификатор : 1Формат : AVCФормат/Информация : Advanced Video CodecПрофиль формата : [email protected]Параметр CABAC формата : ДаПараметр ReFrames формата : 4 кадраИдентификатор кодека : V_MPEG4/ISO/AVCПродолжительность : 43 м.Битрейт : 1850 Кбит/секШирина : 1024 пикселяВысота : 576 пикселейСоотношение сторон : 16:9Режим частоты кадров : ПостоянныйЧастота кадров : 25,000 кадров/секЦветовое пространство : YUVСубдискретизация насыщенности : 4:2:0Битовая глубина : 8 битТип развёртки : ПрогрессивнаяБит/(Пиксели*Кадры) : 0.125Размер потока : 569 Мбайт (86%)Библиотека кодирования : x264 core 125 r2208 d9d2288Настройки программы : cabac=1 / ref=3 / deblock=1:-1:-1 / analyse=0x3:0x131 / me=umh / subme=9 / psy=1 / psy_rd=1.00:0.15 / mixed_ref=1 / me_range=32 / chroma_me=1 / trellis=2 / 8x8dct=1 / cqm=0 / deadzone=21,11 / fast_pskip=0 / chroma_qp_offset=-3 / threads=12 / lookahead_threads=2 / sliced_threads=0 / nr=0 / decimate=1 / interlaced=0 / bluray_compat=0 / constrained_intra=0 / bframes=3 / b_pyramid=2 / b_adapt=0 / b_bias=0 / direct=1 / weightb=1 / open_gop=0 / weightp=2 / keyint=250 / keyint_min=25 / scenecut=40 / intra_refresh=0 / rc_lookahead=50 / rc=2pass / mbtree=1 / bitrate=1850 / ratetol=1.0 / qcomp=0.60 / qpmin=0 / qpmax=69 / qpstep=4 / cplxblur=20.0 / qblur=0.5 / ip_ratio=1.40 / aq=1:1.00Default : ДаForced : Нет
АудиоИдентификатор : 2Формат : AC-3Формат/Информация : Audio Coding 3Расширение режима : CM (complete main)Параметр Endianness формата : BigИдентификатор кодека : A_AC3Продолжительность : 43 м.Вид битрейта : ПостоянныйБитрейт : 256 Кбит/секКаналы : 2 каналаРасположение каналов : Front: L RЧастота : 48,0 КГцБитовая глубина : 16 битМетод сжатия : С потерямиРазмер потока : 80,5 Мбайт (12%)Default : НетForced : Нет

Скриншоты




Создавать темы 28-Май-2014 08:59

[Профиль]  [ЛС] 

SunDaY

Стаж: 3 года 10 месяцев

Сообщений: 6

Дайте скорость !

Создавать темы 28-Май-2014 11:47

[Профиль]  [ЛС] 

razor2011 ®

Стаж: 4 года 11 месяцев

Сообщений: 227

Симпатии: 37

∏ премодерация

Создавать темы 28-Май-2014 13:12

[Профиль]  [ЛС] 

SunDaY

Стаж: 3 года 10 месяцев

Сообщений: 6

√ проверено

Создавать темы 28-Май-2014 16:22

[Профиль]  [ЛС] 

SunDaY

Стаж: 3 года 10 месяцев

Сообщений: 6

Дайте скорость !

Создавать темы 28-Май-2014 18:37

[Профиль]  [ЛС] 

ferteh

Стаж: 4 года 9 месяцев

Сообщений: 24

чейто источник совсем потерялся!!! эй дружище начинай раздачу

Создавать темы 02-Июн-2014 19:14

[Профиль]  [ЛС] 

ferteh

Стаж: 4 года 9 месяцев

Сообщений: 24

думаю когда этот релиз скачается,все животные просто вымрут. с такой скоростью не один век пройдет

Создавать темы 07-Июн-2014 19:26

[Профиль]  [ЛС] 

beck8788

Стаж: 7 лет 4 месяца

Сообщений: 88

Симпатии: 1

839408думаю когда этот релиз скачается, все животные просто вымрут. с такой скоростью не один век пройдет
Согласен с Вами.... mb

Создавать темы 10-Июн-2014 08:48

[Профиль]  [ЛС] 

razor2011 ®

Стаж: 4 года 11 месяцев

Сообщений: 227

Симпатии: 37

840765
839408думаю когда этот релиз скачается, все животные просто вымрут. с такой скоростью не один век пройдет
Согласен с Вами....
раздаю 24/7 без ограничения!!! это вы остановите другие закачки если хотите посмотреть животных до их вымирания !!! ag ap ap

Создавать темы 10-Июн-2014 09:27

[Профиль]  [ЛС] 

beck8788

Стаж: 7 лет 4 месяца

Сообщений: 88

Симпатии: 1

раздаю 24/7 без ограничения!!! это вы остановите другие закачки если хотите посмотреть животных до их вымирания !!! ag ap ap
Интересный ответь, потому что трэкере скорость 0.9КБ/с. За релиз спасибо, пожалуйста, не забудьте раздавать.

Создавать темы 11-Июн-2014 09:01

[Профиль]  [ЛС] 

ferteh

Стаж: 4 года 9 месяцев

Сообщений: 24

razor2011 ® вас давно нет на раздаче. стоим на 29,1. когда ив какое время быть изволите?

Создавать темы 15-Июн-2014 16:36

[Профиль]  [ЛС] 

razor2011 ®

Стаж: 4 года 11 месяцев

Сообщений: 227

Симпатии: 37

843752razor2011 ® вас давно нет на раздаче. стоим на 29,1. когда ив какое время быть изволите?
я на раздаче 24/7!!! это что то с трекером. мне нет толку затягивать с раздачей самого это бесит!!! bu bu bu

Создавать темы 15-Июн-2014 18:19

[Профиль]  [ЛС] 
Показать сообщения:    
Ответить на тему

Текущее время: 24-Авг 11:59

Часовой пояс: UTC + 5



Вы не можете начинать темы
Вы не можете отвечать на сообщения
Вы не можете редактировать свои сообщения
Вы не можете удалять свои сообщения
Вы не можете голосовать в опросах
Вы не можете прикреплять файлы к сообщениям
Вы не можете скачивать файлы