День труда / Labor Day (Джейсон Райтман / Jason Reitman) [2013, США, Драма, HDRip] (Лицензия)

Ответить на тему
 

Suxrob89 ®

Стаж: 7 лет

Сообщений: 933

Симпатии: 564

-День труда / Labor Day- Страна: США
Жанр: Драма
Год выпуска: 2013
Продолжительность: 01:51:13
Перевод: Профессиональный (дублированный) Лицензия
Cубтитры: нет-Режиссер: Джейсон Райтман / Jason Reitman-В ролях: Кейт Уинслет, Джош Бролин, Гэттлин Гриффит, Тоби Магуайр, Том Липински, Майка Бакли, Кларк Грегг, Джеймс Ван Дер Бик, Дж.К. Симмонс, Брук Смит...-Описание: Одинокая мать укрывает беглого убийцу в своем доме, где живет вместе с сыном. Полиция обшаривает весь городок в поисках преступника, а мать-одиночка, тем временем, узнает о своем «госте» горькую правду и перестает понимать, что же ей делать.-Дата мировой премьеры: 30 августа 2013
Дата выхода DVD релиза: 18 августа 2014, «Новый Диск»
Дата выхода Blu-Ray релиза: 18 августа 2014, «Новый Диск»- -Качество видео: HDRip (исходник Blu-ray disc)
Формат видео: AVI
Видео: 720x304, 23.976 fps, 1367 kbps
Аудио: 48 kHz, AC3 Dolby Digital, 6 channels, ~384 kbps

Media info

E:\Labor.Day.2013.HDRip1400MB.avi
General
Complete name : E:\Labor.Day.2013.HDRip1400MB.avi
Format : AVI
Format/Info : Audio Video Interleave
File size : 1.37 GiB
Duration : 1h 51mn
Overall bit rate : 1 761 Kbps
Writing application : VirtualDubMod 1.5.10.2 (build 2540/release)
Writing library : VirtualDubMod build 2540/release
Video #0
ID : 0
Format : MPEG-4 Visual
Format profile : Advanced [email protected]
Format settings, BVOP : 2
Format settings, QPel : No
Format settings, GMC : No warppoints
Format settings, Matrix : Default (H.263)
Codec ID : XVID
Codec ID/Hint : XviD
Duration : 1h 51mn
Bit rate : 1 367 Kbps
Width : 720 pixels
Height : 304 pixels
Display aspect ratio : 2.35:1
Frame rate : 23.976 fps
Color space : YUV
Chroma subsampling : 4:2:0
Bit depth : 8 bits
Scan type : Progressive
Compression mode : Lossy
Bits/(Pixel*Frame) : 0.261
Stream size : 1.06 GiB (78%)
Writing library : XviD 1.2.1 (UTC 2008-12-04)
Audio #1
ID : 1
Format : AC-3
Format/Info : Audio Coding 3
Mode extension : CM (complete main)
Format settings, Endianness : Big
Codec ID : 2000
Duration : 1h 51mn
Bit rate mode : Constant
Bit rate : 384 Kbps
Channel count : 6 channels
Channel positions : Front: L C R, Side: L R, LFE
Sampling rate : 48.0 KHz
Bit depth : 16 bits
Compression mode : Lossy
Stream size : 305 MiB (22%)
Alignment : Split accross interleaves
Interleave, duration : 42 ms (1.00 video frame)
Interleave, preload duration : 500 ms

Скриншоты

Создавать темы 30-Май-2014 07:52

[Профиль]  [ЛС] 

Артемий

Стаж: 4 года 11 месяцев

Сообщений: 96

Симпатии: 6

Судя по описанию, это подобие римейка фильма "некуда бежать" с Жан клод Ван Дамом...

Создавать темы 30-Май-2014 16:36

[Профиль]  [ЛС] 

санжар1012

Стаж: 5 лет 6 месяцев

Сообщений: 9

но филм отлич. семейный советою

Создавать темы 03-Июн-2014 11:40

[Профиль]  [ЛС] 
Показать сообщения:    
Ответить на тему

Текущее время: 19-Авг 21:56

Часовой пояс: UTC + 5



Вы не можете начинать темы
Вы не можете отвечать на сообщения
Вы не можете редактировать свои сообщения
Вы не можете удалять свои сообщения
Вы не можете голосовать в опросах
Вы не можете прикреплять файлы к сообщениям
Вы не можете скачивать файлы