Тень / Hyper Shinobi Animation: Shadow / Kage (Кикути Ясухито) [OVA] [4 из 4] [без хардсаба] [RUS(int), JAP+SUB] [2004 г., Эротика, Самурайский Боевик, DVDRip]

Ответить на тему
 

Phantomhive ®

Стаж: 4 года 4 месяца

Сообщений: 218

Симпатии: 10

Тень | 影 (Kage) | Shadow-- Год выпуска: 2004
Страна: Япония
Жанр: Эротика, Самурайский Боевик
Продолжительность: 4 эп. пo 30 мин.
Озвучка: Любительская, двухголосая от [AnimeGroup]
Субтитры: Русские субтитры [ДзюбейКибагами] и Английские субтитры [Orphan Fansubs]-Студия :
Автор оригинала: Ямада Мицухиро
Режиссер: Кикути Ясухито / Kikuchi Yasuhito / 菊地康仁-Описание: Япония времен феодальных междоусобиц. Богатый старик из высоких чинов развлекается в постели с приятной девушкой. В самый неожиданный момент перед его глазами втыкаются ножи, а в следующую секунду горло старика охватывает удавка. В постели раздается предсмертный хрип. Голова старика отлетает в сторону, а из тела хлещут фонтаны крови... Сюжет боевого хентая мрачен и тяжел. Упор сделан на кровавые сцены. Но это история, и тут никуда не денешься...-Качество: DVDRip (Orphan)
Видео: AVC, 640x480, ~2000kbps, 23.976 fps, 8bit
Аудио #1: JAP, Vorbis, 2ch, 160kbps, 48.0 KHz
Аудио #2: RUS DVO, MP3, 2ch, 128kbps, 44.1 KHz
Субтитры #1: RUS (.ass)
Субтитры #2: ENG (.ass)

Доп. информация

Прежде всего это чисто самурайский боевик. Причем добротно сделанный как по сюжету, так и по рисунку (есть несколько красивых кадров). а по количеству кровищи даже превосходящий его.
О тяжелых буднях (блуднях) девушек-ниндзя, которым приходится отдаваться перед тем как убить жертву! Один эпизод "гильотинирования" посредством проволочной удавки чего стоит!
Вместе с тем, стоит отметить имеющую место незаконченость сюжетной линии, поскольку действие мини сериала не ограничилось противостоянием двух первокласных наёмных убийц - Карю и Удзюме. С гибелью последней, проблемы Карю не закончились, скорее наоборот - узнав правду о гибели своей семью, сойдясь в схватке с одним из исполнителей (который, кстати, теперь обладает большой властью ) она сама превращается в объект ликвидации. Отступников ждёт смерть в любом случае, как это и случилось ранее с отцом Удзюме.

Список эпизодов

01. Rule of the Dark
02. Animal Road
03. Runaway Ninja
04. Vicissitudes

Mediainfo

General
Unique ID : 184448658406148252624462875960132822902 (0x8AC384FA3175DE6D9E2FDEFC6808E776)
Complete name : D:\[Orphan]_Shadow_[DVDRip_JAP-RUS_ENG_SUB]\[Orphan]_Shadow_01_[DVD][F88853ED].mkv
Format : Matroska
Format version : Version 2
File size : 431 MiB
Duration : 28mn 1s
Overall bit rate mode : Variable
Overall bit rate : 2 153 Kbps
Movie name : [Orphan-Subs] Shadow - OVA 1
Encoded date : UTC 2013-05-09 23:04:04
Writing application : mkvmerge v4.4.0 ('Die Wiederkehr') сборка от Oct 31 2010 21:52:48
Writing library : libebml v1.0.0 + libmatroska v1.0.0
Attachment : Yes / Yes / Yes
Video
ID : 1
Format : AVC
Format/Info : Advanced Video Codec
Format profile : [email protected]
Format settings, CABAC : Yes
Format settings, ReFrames : 16 frames
Codec ID : V_MPEG4/ISO/AVC
Duration : 28mn 1s
Bit rate : 1 822 Kbps
Width : 640 pixels
Height : 480 pixels
Display aspect ratio : 4:3
Frame rate mode : Constant
Frame rate : 23.976 fps
Original frame rate : 29.970 fps
Standard : NTSC
Color space : YUV
Chroma subsampling : 4:2:0
Bit depth : 8 bits
Scan type : Progressive
Bits/(Pixel*Frame) : 0.247
Stream size : 365 MiB (85%)
Title : Video (H.264)
Writing library : x264 core 104 r1713+252 b6f0b93
Encoding settings : cabac=1 / ref=16 / deblock=1:-2:-1 / analyse=0x3:0x133 / me=tesa / subme=10 / psy=1 / fade_compensate=0.50 / psy_rd=0.90:0.00 / mixed_ref=1 / me_range=24 / chroma_me=1 / trellis=2 / 8x8dct=1 / cqm=0 / deadzone=21,11 / fast_pskip=0 / chroma_qp_offset=-2 / threads=6 / sliced_threads=0 / nr=0 / decimate=0 / interlaced=0 / constrained_intra=0 / fgo=0 / bframes=16 / b_pyramid=2 / b_adapt=2 / b_bias=0 / direct=3 / weightb=1 / open_gop=1 / weightp=2 / keyint=infinite / keyint_min=29 / scenecut=40 / intra_refresh=0 / rc_lookahead=250 / rc=crf / mbtree=1 / crf=14.0 / qcomp=0.75 / qpmin=10 / qpmax=51 / qpstep=4 / ip_ratio=1.40 / aq=1:1.00
Default : Yes
Forced : Yes
Color primaries : BT.601 PAL
Transfer characteristics : BT.470 System B, BT.470 System G
Matrix coefficients : BT.601
Audio #1
ID : 2
Format : Vorbis
Format settings, Floor : 1
Codec ID : A_VORBIS
Duration : 28mn 1s
Bit rate mode : Variable
Bit rate : 160 Kbps
Channel(s) : 2 channels
Sampling rate : 48.0 KHz
Compression mode : Lossy
Stream size : 32.1 MiB (7%)
Title : Japanese Audio (2ch Vorbis)
Writing library : aoTuV b5d (UTC 2009-03-01)
Language : Japanese
Default : No
Forced : No
Audio #2
ID : 3
Format : MPEG Audio
Format version : Version 1
Format profile : Layer 3
Mode : Joint stereo
Mode extension : MS Stereo
Codec ID : A_MPEG/L3
Codec ID/Hint : MP3
Duration : 28mn 1s
Bit rate mode : Constant
Bit rate : 128 Kbps
Channel(s) : 2 channels
Sampling rate : 44.1 KHz
Compression mode : Lossy
Stream size : 25.7 MiB (6%)
Title : AnimeGroup (2ch Vorbis)
Language : Russian
Default : No
Forced : No
Text #1
ID : 4
Format : ASS
Codec ID : S_TEXT/ASS
Codec ID/Info : Advanced Sub Station Alpha
Compression mode : Lossless
Title : Russian Subtitles (ASS)
Language : Russian
Default : Yes
Forced : Yes
Text #2
ID : 5
Format : ASS
Codec ID : S_TEXT/ASS
Codec ID/Info : Advanced Sub Station Alpha
Compression mode : Lossless
Title : English Subtitles (ASS)
Language : English
Default : No
Forced : No
Menu
00:00:00.000 : :Intro
00:05:05.597 : :Main
00:25:46.546 : :ED

Скриншоты



Последний раз редактировалось: Phantomhive (2014-06-01 14:37), всего редактировалось 5 раз(а)

Создавать темы 01-Июн-2014 06:36

[Профиль]  [ЛС] 

Phantomhive ®

Стаж: 4 года 4 месяца

Сообщений: 218

Симпатии: 10

    проверено
-Простите это аниме в ходит в Раздел OVA и DVD, DVDRip я за лил на DVD, DVDRip если что можите премистит тему!!!

Создавать темы 01-Июн-2014 06:38

[Профиль]  [ЛС] 

Phantomhive ®

Стаж: 4 года 4 месяца

Сообщений: 218

Симпатии: 10

штота нитак обисните!!! почему не недооформлено!!

Создавать темы 01-Июн-2014 14:35

[Профиль]  [ЛС] 

Phantomhive ®

Стаж: 4 года 4 месяца

Сообщений: 218

Симпатии: 10

Вродиба исправил посмотрите!!!

Создавать темы 01-Июн-2014 14:38

[Профиль]  [ЛС] 

LLIeJIecm

Стаж: 5 лет 1 месяц

Сообщений: 20

Симпатии: 13

дайте газзззууу на 79% уже 2 дня стою

Создавать темы 20-Мар-2015 21:19

[Профиль]  [ЛС] 

Felon

Стаж: 2 года 7 месяцев

Сообщений: 11

Симпатии: 14

скорость поддайте че жметись

Создавать темы 16-Апр-2015 13:53

[Профиль]  [ЛС] 
Показать сообщения:    
Ответить на тему

Текущее время: 24-Окт 11:02

Часовой пояс: UTC + 5



Вы не можете начинать темы
Вы не можете отвечать на сообщения
Вы не можете редактировать свои сообщения
Вы не можете удалять свои сообщения
Вы не можете голосовать в опросах
Вы не можете прикреплять файлы к сообщениям
Вы не можете скачивать файлы