Вулкан страстей / Eyjafjallajökull (Александр Коффре / Alexandre Coffre) [2013, Франция, Комедия, приключения, HDRip] [Чистый звук]

Ответить на тему
 

Suxrob89 ®

Стаж: 7 лет 4 месяца

Сообщений: 933

Симпатии: 564

-Вулкан страстей / Eyjafjallajökull- Страна: Франция
Жанр: Комедия, приключения
Год выпуска: 2013
Продолжительность: 01:32:06
Перевод: Профессиональный (дублированный) [Чистый звук]
Cубтитры: Hет-Режиссер: Александр Коффре / Alexandre Coffre-В ролях: Валери Боннетон, Дани Бун, Дени Меноше, Альберт Дельпи, Беранжер МакНис, Малик Бенталха, Констанс Долле, Мириам Азенкот, Арно Анриет, Ян Сортон-Описание: Где бы вы не хотели встретиться со своим бывшим? Только не в соседнем кресле самолета, чтобы пережить вместе длинный перелет. И уж точно не в одной машине, чтобы вопреки исландскому вулкану с непроизносимым названием, пересечь всю Европу. Когда вы страстно ненавидите друг друга, может случиться всякое. И угон самолета, и авария, и побег из полиции и даже… возвращение романтики- -Качество видео: HDRip
Формат видео: AVI
Видео: 720x304 (2.37:1), 23.976 fps, XviD build 50 ~1666 kbps avg, 0.32 bit/pixel
Аудио: 48 kHz, AC3 Dolby Digital, 3/2 (L,C,R,l,r) + LFE ch, ~448 kbps

MediaInfo

Complete name : D:\3.Торренты\Vulkan.Strastey.2013.D.HDRip.1400MB.avi
Format : AVI
Format/Info : Audio Video Interleave
File size : 1.37 GiB
Duration : 1h 32mn
Overall bit rate : 2 124 Kbps
Writing application : VirtualDubMod 1.5.10.2 (build 2540/release)
Writing library : VirtualDubMod build 2540/release
Video
ID : 0
Format : MPEG-4 Visual
Format profile : Advanced [email protected]
Format settings, BVOP : 2
Format settings, QPel : No
Format settings, GMC : No warppoints
Format settings, Matrix : Custom
Codec ID : XVID
Codec ID/Hint : XviD
Duration : 1h 32mn
Bit rate : 1 667 Kbps
Width : 720 pixels
Height : 304 pixels
Display aspect ratio : 2.35:1
Frame rate : 23.976 fps
Color space : YUV
Chroma subsampling : 4:2:0
Bit depth : 8 bits
Scan type : Progressive
Compression mode : Lossy
Bits/(Pixel*Frame) : 0.318
Stream size : 1.07 GiB (78%)
Writing library : XviD 1.2.1 (UTC 2008-12-04)
Audio
ID : 1
Format : AC-3
Format/Info : Audio Coding 3
Mode extension : CM (complete main)
Format settings, Endianness : Big
Codec ID : 2000
Duration : 1h 32mn
Bit rate mode : Constant
Bit rate : 448 Kbps
Channel(s) : 6 channels
Channel positions : Front: L C R, Side: L R, LFE
Sampling rate : 48.0 KHz
Bit depth : 16 bits
Compression mode : Lossy
Stream size : 295 MiB (21%)
Alignment : Split accross interleaves
Interleave, duration : 42 ms (1.00 video frame)
Interleave, preload duration : 500 ms

Скриншот c названием фильма

Скриншоты

Создавать темы 02-Июн-2014 07:42

[Профиль]  [ЛС] 
Показать сообщения:    
Ответить на тему

Текущее время: 14-Дек 01:37

Часовой пояс: UTC + 5



Вы не можете начинать темы
Вы не можете отвечать на сообщения
Вы не можете редактировать свои сообщения
Вы не можете удалять свои сообщения
Вы не можете голосовать в опросах
Вы не можете прикреплять файлы к сообщениям
Вы не можете скачивать файлы