Игра престолов / Game of Thrones (Сезон 4, серии 10 из 10) (Алан Тейлор, Даниэль Минахан, Дэвид Наттер, Брайан Кирк, Тимоти Ван Паттен, Дэвид Петрарка) [2014, фэнтези, драма, приключения, HDTV 720p] [MVO] (LostFilm.TV / Amedia)

Страницы :  1, 2  След.

Ответить на тему
 

CoolDX ®

Стаж: 6 лет 10 месяцев

Сообщений: 196

Симпатии: 59

Игра престолов / Game of Thrones
~ 4 сезон (10 серии) ~
-Год выхода: 2014
Жанр: фэнтези, драма, приключения
Страна: США, Великобритания
Продолжительность: ~01:00:10
Перевод: Профессиональный многоголосый (LostFilm.TV / Amedia) -Режиссеры: Алан Тейлор, Даниэль Минахан, Дэвид Наттер, Брайан Кирк, Тимоти Ван Паттен, Дэвид Петрарка-В ролях: Лена Хиди, Питер Динклэйдж, Мишель Фэйрли, Эмилия Кларк, Кит Харингтон, Николай Костер-Валдау, Иэн Глен, Эйден Гиллен, Элфи Оуэн-Аллен, Мэйси Уильямс, Софи Тернер, Джек Глисон, Исаак Хемпстид-Райт, Ричард Мэдден, Джером Флинн, Конлет Хилл, Дональд Самптер, Рори МакКанн, Амрита Ачария, Чарльз Дэнс, Джон Брэдли, Кристиан Нэйрн, Сибель Кекилли, Джеймс Космо, Стивен Диллэйн, Гетин Энтони, Гвендолин Кристи, Натали Дормер-О фильме: К концу подходит время благоденствия, и лето, длившееся почти десятилетие, угасает. Вокруг средоточия власти Семи королевств, Железного трона, зреет заговор, и в это непростое время король решает искать поддержки у друга юности Эддарда Старка. В мире, где все — от короля до наемника — рвутся к власти, плетут интриги и готовы вонзить нож в спину, есть место и благородству, состраданию и любви. Между тем, никто не замечает пробуждение тьмы из легенд далеко на Севере — и лишь Стена защищает живых к югу от нее.-IMDB рейтинг: 9.5/10 (540 164 голосов)
Кинопоиск рейтинг: 9.082 (87 424 голосов)-Качество: HDTV 720p
Формат: MKV
Видео: H.264, 1280x720 (16:9), 23.976 fps, ~3000 kbps, 0.138 bit/pixel
Аудио #1: Русский MP3, 2 ch, 48Khz, 192 Кбит/с | Профессиональное (многоголосое) LOSTFILM
Аудио #2: Русский MP3, 2 ch, 48Khz, 128 Кбит/с | Профессиональное (дублированное) Amedia
Аудио #3: Оригинал AC3, 2 ch, 48 kHz, 384 Кбит/с-Релиз подготовлен при поддержке проекта CoolDX-

Интересно

Сюжет основан на псевдоисторической саге Джорджа Р. Р. Мартина «Песнь Льда и Огня».
Съёмки пилотного эпизода заняли почти месяц с 24 октября 2009 года по 19 ноября 2009 года.
Вскоре после окончания съёмок пилотной серии стало известно, что актрису Дженнифер Или (роль Кейтилин Старк) заменит Мишель Фэйрли, кроме того, исполнительницу одной из ключевых ролей Дейенерис Таргариен молодую актрису Тэмзин Мёрчант также заменили Эмилией Кларк. Это потребовало повторной съемки части сцен, включая пролог, при этом из-за накладок в расписании не все актеры пилотного эпизода смогли вернуться к пересъемкам, что потребовало замену актеров для еще трех персонажей. Режиссёр первого варианта пилотной серии сериала, Томас Маккарти, также не смог вернуться к повторным съемкам и был заменен, его имя не упоминается в титрах.
Основные съемки первого сезона проходили в студии Зал Краски (Paint Hall Studio) в Белфасте, Северная Ирландия, а также на Мальте (вместо планируемого первоначально Марокко). На Мальте съемки проходили в городах Мдина и Валлетта.
Эддарда Старка могли сыграть Лиам Нисон, Джерард Батлер, Вигго Мортенсен и Сэм Нил, но Дэвид Бениофф, Д. Б. Уайсс и Джордж Р. Р. Мартин сошлись на том, что Владыку Севера должен сыграть Шон Бин.
На роль Давоса Сиворта рассматривались Тим Рот и Дэвид Тьюлис.
Роль Кэйтилин Старк могла сыграть Джиллиан Андерсон.
Туннель, через который выезжают разведчики Ночного Дозора, на самом деле прорыт в склоне холма в каменоломне, где снимался Черный Замок. Стены у него из цемента.
Для сцены с обедом в трапезной Черного Замка сварили настолько неприятного вида кашу, что актер, игравший Пипа, отказался ее есть, а актер, игравший Гренна, в кадре пытается ее проглотить и не может.
Сцена, в которой Серсея разговаривает с Недом в башне Десницы, была отснята на съемках сериала самой первой.
В цикле Джорджа Р. Р. Мартина «Песнь Льда и Пламени» Арья Старк — левша. Правша Мэйси Уильямс, исполняющая роль Арьи в экранизации, ради достоверности образа научилась полноценно пользоваться левой рукой.

Список серий:

01. Два меча (Two Swords)
02. Лев и Роза (The Lion and the Rose)
03. Разрушительница оков (Breaker of Chains)
04. Верный клятве (Oathkeeper)
05. Именуемый Первым (First of His Name)
06. Законы богов и людей (The Laws of Gods and Men)
07. Пересмешник (Mockingbird)
08. Гора и Змей (The Mountain and the Viper)
09. Дозорные на Стене (The Watchers on the Wall)
10. Дети (The Children)

MediaInfo

General
Format : Matroska
Format version : Version 4 / Version 2
File size : 1.60 GiB
Duration : 1h 0mn
Overall bit rate mode : Variable
Overall bit rate : 3 817 Kbps
Encoded date : UTC 2014-04-09 22:33:51
Writing application : mkvmerge v6.8.0 ('Theme for Great Cities') 32bit built on Mar 2 2014 21:27:07
Writing library : libebml v1.3.0 + libmatroska v1.4.1
Video
ID : 1
Format : AVC
Format/Info : Advanced Video Codec
Format profile : [email protected]
Format settings, CABAC : Yes
Format settings, ReFrames : 5 frames
Codec ID : V_MPEG4/ISO/AVC
Duration : 1h 0mn
Bit rate : 3 041 Kbps
Width : 1 280 pixels
Height : 720 pixels
Display aspect ratio : 16:9
Frame rate mode : Constant
Frame rate : 23.976 fps
Color space : YUV
Chroma subsampling : 4:2:0
Bit depth : 8 bits
Scan type : Progressive
Bits/(Pixel*Frame) : 0.138
Stream size : 1.28 GiB (80%)
Title : Release from CoolDX
Writing library : x264 core 142 r2409 d6b4e63
Encoding settings : cabac=1 / ref=5 / deblock=1:0:0 / analyse=0x3:0x113 / me=umh / subme=8 / psy=1 / psy_rd=1.00:0.00 / mixed_ref=1 / me_range=16 / chroma_me=1 / trellis=1 / 8x8dct=1 / cqm=0 / deadzone=21,11 / fast_pskip=1 / chroma_qp_offset=-2 / threads=18 / lookahead_threads=3 / sliced_threads=0 / nr=0 / decimate=1 / interlaced=0 / bluray_compat=0 / constrained_intra=0 / bframes=3 / b_pyramid=2 / b_adapt=2 / b_bias=0 / direct=3 / weightb=1 / open_gop=0 / weightp=2 / keyint=250 / keyint_min=23 / scenecut=40 / intra_refresh=0 / rc_lookahead=50 / rc=crf / mbtree=1 / crf=18.0 / qcomp=0.60 / qpmin=0 / qpmax=69 / qpstep=4 / ip_ratio=1.40 / aq=1:1.00
Language : English
Default : No
Forced : No
Matrix coefficients : BT.709
Audio #1
ID : 2
Format : MPEG Audio
Format version : Version 1
Format profile : Layer 3
Mode : Joint stereo
Codec ID : A_MPEG/L3
Codec ID/Hint : MP3
Duration : 1h 0mn
Bit rate mode : Variable
Bit rate : 187 Kbps
Channel(s) : 2 channels
Sampling rate : 48.0 KHz
Compression mode : Lossy
Stream size : 80.5 MiB (5%)
Title : Профессиональный многоголосый (LostFilm.TV)
Writing library : LAME3.97bє
Language : Russian
Default : Yes
Forced : Yes
Audio #2
ID : 3
Format : MPEG Audio
Format version : Version 1
Format profile : Layer 3
Codec ID : A_MPEG/L3
Codec ID/Hint : MP3
Duration : 1h 0mn
Bit rate mode : Constant
Bit rate : 128 Kbps
Channel(s) : 2 channels
Sampling rate : 48.0 KHz
Compression mode : Lossy
Stream size : 55.1 MiB (3%)
Title : Профессиональный дублированный (Amedia)
Language : Russian
Default : No
Forced : No
Audio #3
ID : 4
Format : AC-3
Format/Info : Audio Coding 3
Mode extension : CM (complete main)
Format settings, Endianness : Big
Codec ID : A_AC3
Duration : 1h 0mn
Bit rate mode : Constant
Bit rate : 384 Kbps
Channel(s) : 2 channels
Channel positions : Front: L R
Sampling rate : 48.0 KHz
Bit depth : 16 bits
Compression mode : Lossy
Stream size : 165 MiB (10%)
Title : Оригинал
Language : English
Default : No
Forced : No

Скриншоты:






Последний раз редактировалось: CoolDX (2014-06-18 09:33), всего редактировалось 2 раз(а)

Создавать темы 04-Июн-2014 18:36

[Профиль]  [ЛС] 

Топик был перенесен из форума Сериалы (сезон 2013-2014) в форум HD
saidali

Создавать темы 04-Июн-2014 18:41

 

MiamiBoy

Стаж: 6 лет 6 месяцев

Сообщений: 136

Симпатии: 7

спасибо, ждал)

Создавать темы 05-Июн-2014 00:20

[Профиль]  [ЛС] 

Setshi

Стаж: 5 лет 9 месяцев

Сообщений: 18

Симпатии: 1

Спасибо.
Когда 9ю добавите ? Вроде уже вышла от амедии.

Создавать темы 10-Июн-2014 15:22

[Профиль]  [ЛС] 

ilyor

Стаж: 5 лет

Сообщений: 11

Симпатии: 1

Спасибо,
а 9 серию когда зальете?

Создавать темы 10-Июн-2014 19:46

[Профиль]  [ЛС] 

CoolDX ®

Стаж: 6 лет 10 месяцев

Сообщений: 196

Симпатии: 59

добавлена 9ая серия

Создавать темы 11-Июн-2014 02:43

[Профиль]  [ЛС] 

CoolDX ®

Стаж: 6 лет 10 месяцев

Сообщений: 196

Симпатии: 59

841199Спасибо, а 9 серию когда зальете?
840952Спасибо. Когда 9ю добавите ? Вроде уже вышла от амедии.
я обновляю релизы только после выхода перевода от LostFilm

Создавать темы 11-Июн-2014 02:45

[Профиль]  [ЛС] 

CoolDX ®

Стаж: 6 лет 10 месяцев

Сообщений: 196

Симпатии: 59

добавлена заключительная 10ая серия 4го сезона.
до встречи в следующем году ;)

Создавать темы 18-Июн-2014 09:34

[Профиль]  [ЛС] 

9353

Стаж: 5 лет 1 месяц

Сообщений: 12

Симпатии: 1

Sonatrek, спасибо за труд! Ребята просьба, не уходите с раздач.

Создавать темы 18-Июн-2014 11:18

[Профиль]  [ЛС] 

MiamiBoy

Стаж: 6 лет 6 месяцев

Сообщений: 136

Симпатии: 7

Sonatrek, огромное спасибо за качество и за скорость.

Создавать темы 18-Июн-2014 15:23

[Профиль]  [ЛС] 

denis_87

Стаж: 5 лет 7 месяцев

Сообщений: 7

Всем спасибо за труд и бескорыстие!!!! Жаль кнопку убрали со СПАСИБО!

Создавать темы 14-Июл-2014 23:33

[Профиль]  [ЛС] 

seka

Стаж: 4 года 8 месяцев

Сообщений: 39

Симпатии: 2

ребят скорость

Создавать темы 22-Авг-2014 09:11

[Профиль]  [ЛС] 

azik-1993

Стаж: 4 года 9 месяцев

Сообщений: 155

Симпатии: 23

спасибо за сериал))

Создавать темы 16-Сен-2014 10:49

[Профиль]  [ЛС] 

bumblebee

Стаж: 7 лет 3 месяца

Сообщений: 97

Симпатии: 1

а у кого нить есть первые 3 сезона в таком качестве?

Создавать темы 17-Фев-2015 23:12

[Профиль]  [ЛС] 

Dilik91

Стаж: 7 лет

Сообщений: 60

Симпатии: 1

пожалуйста скорость дайте

Создавать темы 21-Авг-2016 09:22

[Профиль]  [ЛС] 
Показать сообщения:    
Ответить на тему

Текущее время: 19-Ноя 11:54

Часовой пояс: UTC + 5



Вы не можете начинать темы
Вы не можете отвечать на сообщения
Вы не можете редактировать свои сообщения
Вы не можете удалять свои сообщения
Вы не можете голосовать в опросах
Вы не можете прикреплять файлы к сообщениям
Вы не можете скачивать файлы