[MOVIE] 3 дня на убийство / 3 Days to Kill (МакДжи / McG) [2014, боевик, криминал, триллер, драма, WEB-DLRip] [MP4, 640x] [Theatrical Cut] Dub iTunes

Ответить на тему
 

Slapper ®

Стаж: 3 года 10 месяцев

Сообщений: 2193

Симпатии: 213

3 дня на убийство / 3 Days to Kill-- Год выпуска: 2014
Страна: США, Франция, Греция, Россия
Жанр: боевик, криминал, триллер, драма
Продолжительность: 01:56:52
Перевод: Профессиональный (дублированный) iTunes Russia
Cубтитры: нет-Режиссер: МакДжи / McG-В ролях: Кевин Костнер, Эмбер Хёрд, Хейли Стайнфелд, Конни Нильсен, Томас Лемаркус, Рихард Заммель, Марк Андреони, Бруно Риччи, Йонас Блоке, Эрик Эбони-Описание: В секретной лаборатории ученые разработали препарат, который позволяет человеку справиться с любой неизлечимой болезнью. Руководство спецслужб предлагает принять это лекарство экс-агенту спецслужб Итану Раннеру, которому врачи объявили смертельный диагноз. Но он должен выполнить еще одно задание, которое, впрочем, может стоить ему жизни. Теперь вокруг Раннера начинают происходить странные вещи. Что это — галлюцинации, побочный эффект от таблеток или мир действительно полон ужаса и кошмара?-- 
-Качество: WEB-DLRip (рип с WEB-DL 720p)
Формат: MP4
Видео кодек: H.264
Аудио кодек: AAC
Видео: AVC at 679 Kbps, 640 x 272 (2.369) at 24.000 fps
Аудио: AAC at 128 Kbps, 2 channels, 48.0 KHz
--

MediaInfo

Format                                   : MPEG-4
Format profile                           : Base Media
Codec ID                                 : isom
File size                                : 679 MiB
Duration                                 : 1h 56mn
Overall bit rate                         : 812 Kbps
Movie name                               : 3 Days to Kill [by Alien.09]
Writing application                      : XviD4PSP 6.0 / 53.6.0
Video
ID                                       : 1
Format                                   : AVC
Format/Info                              : Advanced Video Codec
Format profile                           : [email protected]
Format settings, CABAC                   : Yes
Format settings, ReFrames                : 3 frames
Codec ID                                 : avc1
Codec ID/Info                            : Advanced Video Coding
Duration                                 : 1h 56mn
Bit rate                                 : 679 Kbps
Width                                    : 640 pixels
Height                                   : 272 pixels
Display aspect ratio                     : 2.35:1
Original display aspect ratio            : 2.40:1
Frame rate mode                          : Constant
Frame rate                               : 24.000 fps
Color space                              : YUV
Chroma subsampling                       : 4:2:0
Bit depth                                : 8 bits
Scan type                                : Progressive
Bits/(Pixel*Frame)                       : 0.163
Stream size                              : 568 MiB (84%)
Writing library                          : x264 core 116 r2019M 9cc407d
Encoding settings                        : cabac=1 / ref=3 / deblock=1:0:0 / analyse=0x1:0x131 / me=hex / subme=7 / psy=1 / psy_rd=1.00:0.20 / mixed_ref=1 / me_range=16 / chroma_me=1 / trellis=1 / 8x8dct=0 / cqm=0 / deadzone=21,11 / fast_pskip=1 / chroma_qp_offset=-3 / threads=12 / sliced_threads=0 / nr=0 / decimate=1 / interlaced=0 / bluray_compat=0 / constrained_intra=0 / bframes=3 / b_pyramid=0 / b_adapt=2 / b_bias=0 / direct=3 / weightb=1 / open_gop=0 / weightp=0 / keyint=240 / keyint_min=24 / scenecut=40 / intra_refresh=0 / rc_lookahead=40 / rc=2pass / mbtree=1 / bitrate=679 / ratetol=1.0 / qcomp=0.60 / qpmin=10 / qpmax=51 / qpstep=4 / cplxblur=20.0 / qblur=0.5 / vbv_maxrate=5000 / vbv_bufsize=1835 / nal_hrd=none / ip_ratio=1.40 / aq=1:1.00
Language                                 : English
Audio
ID                                       : 2
Format                                   : AAC
Format/Info                              : Advanced Audio Codec
Format profile                           : LC
Codec ID                                 : 40
Duration                                 : 1h 56mn
Bit rate mode                            : Constant
Bit rate                                 : 128 Kbps
Channel(s)                               : 2 channels
Channel positions                        : Front: L R
Sampling rate                            : 48.0 KHz
Compression mode                         : Lossy
Delay relative to video                  : 42ms
Stream size                              : 107 MiB (16%)
Language                                 : Russian
-

Скриншоты

- -
--

Создавать темы 04-Июн-2014 22:38

[Профиль]  [ЛС] 

VAIO

Стаж: 5 лет 8 месяцев

Сообщений: 1568

Симпатии: 1399

Slapper, Классно оформили :)

Создавать темы 06-Июн-2014 13:02

[Профиль]  [ЛС] 

Slapper ®

Стаж: 3 года 10 месяцев

Сообщений: 2193

Симпатии: 213

VAIO, :)

Создавать темы 06-Июн-2014 14:14

[Профиль]  [ЛС] 
Показать сообщения:    
Ответить на тему

Текущее время: 20-Сен 07:12

Часовой пояс: UTC + 5



Вы не можете начинать темы
Вы не можете отвечать на сообщения
Вы не можете редактировать свои сообщения
Вы не можете удалять свои сообщения
Вы не можете голосовать в опросах
Вы не можете прикреплять файлы к сообщениям
Вы не можете скачивать файлы