3 дня на убийство / 3 Days to Kill (Джозеф Макгинти Никол / Joseph McGinty Nichol) [2014 г., Боевик, драма, мелодрама, приключения, BDRip]

Ответить на тему
 

azik-1993 ®

Стаж: 4 года 7 месяцев

Сообщений: 155

Симпатии: 23

3 дня на убийство / 3 Days to Kill- -Год выпуска: 2014
Страна: США, Франция, Греция, Россия
Жанр: Боевик, драма, мелодрама, приключения
Продолжительность: 01:57:02
Перевод: Дублированный-Режиссер: Джозеф Макгинти Никол / Joseph McGinty Nichol-В ролях: Кевин Костнер, Эмбер Хёрд, Хейли Стайнфелд, Конни Нильсен, Томас Лемаркус, Рихард Заммель, Марк Андреони, Бруно Риччи, Йонас Блоке, Эрик Эбони-Описание: В секретной лаборатории ученые разработали препарат, который позволяет человеку справиться с любой неизлечимой болезнью. Руководство спецслужб предлагает принять это лекарство экс-агенту спецслужб Итану Раннеру, которому врачи объявили смертельный диагноз. Но он должен выполнить еще одно задание, которое, впрочем, может стоить ему жизни. Теперь вокруг Раннера начинают происходить странные вещи. Что это — галлюцинации, побочный эффект от таблеток или мир действительно полон ужаса и кошмара?-Качество: BDRip
Формат: MKV
Видео кодек: x264
Аудио кодек: AC-3
Видео: 960x404 (2,40:1), 23,976 fps, x264 ~ 1492 kbps avg, 0.160 bit/pixel
Аудио: 48,0 kHz, Audio Coding 3, Front: L C R, Side: L R, LFE, ~384 kbps avg

MediaInfo

Общее
Уникальный идентификатор : 248371535915392312150849463274251225547 (0xBADA9E2A741E86A7B5FB1DDDCF1409CB)
Полное имя : D:Видео3 дня на убийство (Театральная версия) .2014. 1.50 GB. ВDRip -AVC by Vovan1979(RG WazZzuP)KZ.mkv
Формат : Matroska
Версия формата : Version 4 / Version 2
Размер файла : 1,53 Гбайт
Продолжительность : 1 ч. 57 м.
Общий поток : 1877 Кбит/сек
Название фильма : 3 дня на убийство (Театральная версия) .2014. ВDRip -AVC by Vovan1979(RG WazZzuP)KZ
Дата кодирования : UTC 2014-06-04 06:57:58
Программа кодирования : mkvmerge v6.1.0 ('Old Devil') built on Mar 4 2013 09:10:42
Библиотека кодирования : libebml v1.3.0 + libmatroska v1.4.0
Видео
Идентификатор : 1
Формат : AVC
Формат/Информация : Advanced Video Codec
Профиль формата : [email protected]
Параметр CABAC формата : Да
Параметр ReFrames формата : 6 кадров
Идентификатор кодека : V_MPEG4/ISO/AVC
Продолжительность : 1 ч. 57 м.
Битрейт : 1492 Кбит/сек
Ширина : 960 пикселей
Высота : 404 пикселя
Соотношение сторон : 2,40:1
Режим частоты кадров : Постоянный
Частота кадров : 23,976 кадра/сек
Цветовое пространство : YUV
Субдискретизация насыщенности : 4:2:0
Битовая глубина : 8 бит
Тип развёртки : Прогрессивная
Бит/(Пиксели*Кадры) : 0.160
Размер потока : 1,19 Гбайт (78%)
Заголовок : ВDRip -AVC by Vovan1979(RG WazZzuP)KZ
Библиотека кодирования : x264 core 130 r2273 b3065e6
Настройки программы : cabac=1 / ref=6 / deblock=1:-1:-1 / analyse=0x3:0x113 / me=umh / subme=11 / psy=1 / psy_rd=1.00:0.15 / mixed_ref=1 / me_range=24 / chroma_me=1 / trellis=2 / 8x8dct=1 / cqm=0 / deadzone=21,11 / fast_pskip=1 / chroma_qp_offset=-3 / threads=6 / lookahead_threads=1 / sliced_threads=0 / nr=0 / decimate=1 / interlaced=0 / bluray_compat=0 / constrained_intra=0 / bframes=6 / b_pyramid=2 / b_adapt=2 / b_bias=0 / direct=3 / weightb=1 / open_gop=0 / weightp=2 / keyint=250 / keyint_min=23 / scenecut=40 / intra_refresh=0 / rc_lookahead=40 / rc=2pass / mbtree=1 / bitrate=1492 / ratetol=1.0 / qcomp=0.60 / qpmin=0 / qpmax=69 / qpstep=4 / cplxblur=20.0 / qblur=0.5 / ip_ratio=1.40 / aq=1:1.00
Default : Да
Forced : Нет
Аудио
Идентификатор : 4
Формат : AC-3
Формат/Информация : Audio Coding 3
Расширение режима : CM (complete main)
Параметр Endianness формата : Big
Идентификатор кодека : A_AC3
Продолжительность : 1 ч. 57 м.
Вид битрейта : Постоянный
Битрейт : 384 Кбит/сек
Каналы : 6 каналов
Расположение каналов : Front: L C R, Side: L R, LFE
Частота : 48,0 КГц
Битовая глубина : 16 бит
Метод сжатия : С потерями
Размер потока : 321 Мбайт (20%)
Заголовок : Лицензия
Язык : Russian
Default : Да
Forced : Нет
Текст #1
Идентификатор : 2
Формат : UTF-8
Идентификатор кодека : S_TEXT/UTF8
Идентификатор кодека/Информация : UTF-8 Plain Text
Заголовок : FULL
Язык : Russian
Default : Нет
Forced : Нет
Текст #2
Идентификатор : 3
Формат : UTF-8
Идентификатор кодека : S_TEXT/UTF8
Идентификатор кодека/Информация : UTF-8 Plain Text
Язык : English
Default : Нет
Forced : Нет
Меню
00:00:00.000 : en:00:00:00.000
00:03:35.132 : en:00:03:35.132
00:06:55.206 : en:00:06:55.206
00:10:49.482 : en:00:10:49.482
00:15:27.468 : en:00:15:27.468
00:20:18.467 : en:00:20:18.467
00:24:32.721 : en:00:24:32.721
00:28:36.214 : en:00:28:36.214
00:33:25.420 : en:00:33:25.420
00:36:53.044 : en:00:36:53.044
00:39:32.912 : en:00:39:32.912
00:43:14.926 : en:00:43:14.926
00:48:20.731 : en:00:48:20.731
00:52:12.379 : en:00:52:12.379
00:56:39.855 : en:00:56:39.855
01:07:27.376 : en:01:07:27.376
01:12:36.602 : en:01:12:36.602
01:18:50.809 : en:01:18:50.809
01:24:20.013 : en:01:24:20.013
01:29:43.044 : en:01:29:43.044
01:36:25.529 : en:01:36:25.529
01:39:32.675 : en:01:39:32.675
01:46:41.353 : en:01:46:41.353
01:49:38.822 : en:01:49:38.822

Скриншоты



Последний раз редактировалось: azik-1993 (2014-06-05 16:09), всего редактировалось 2 раз(а)

Создавать темы 05-Июн-2014 11:35

[Профиль]  [ЛС] 

Slapper

Стаж: 3 года 10 месяцев

Сообщений: 2193

Симпатии: 213

Продолжительность: 01:57:02:022
уберите выделенное жирным шрифтом

Создавать темы 05-Июн-2014 11:51

[Профиль]  [ЛС] 

Nosferatu

Стаж: 4 года 6 месяцев

Сообщений: 79

Симпатии: 5

838145
Продолжительность: 01:57:02:022
уберите выделенное жирным шрифтом
миллисекунды?

Создавать темы 05-Июн-2014 11:57

[Профиль]  [ЛС] 

Slapper

Стаж: 3 года 10 месяцев

Сообщений: 2193

Симпатии: 213

Nosferatu, да

Создавать темы 05-Июн-2014 12:46

[Профиль]  [ЛС] 

azik-1993 ®

Стаж: 4 года 7 месяцев

Сообщений: 155

Симпатии: 23

838145
Продолжительность: 01:57:02:022
уберите выделенное жирным шрифтом
Готово

Создавать темы 05-Июн-2014 16:11

[Профиль]  [ЛС] 

Slapper

Стаж: 3 года 10 месяцев

Сообщений: 2193

Симпатии: 213

azik-1993, по моему, нужно перенести этот релиз в этот раздел HD-video

Создавать темы 05-Июн-2014 16:21

[Профиль]  [ЛС] 

azik-1993 ®

Стаж: 4 года 7 месяцев

Сообщений: 155

Симпатии: 23

838245azik-1993, по моему, нужно перенести этот релиз в этот раздел HD-video
Я же не модератор чтоб перемещать)))Смотрите сами...

Создавать темы 05-Июн-2014 18:11

[Профиль]  [ЛС] 

Slapper

Стаж: 3 года 10 месяцев

Сообщений: 2193

Симпатии: 213

azik-1993, да, это сообщение было модераторам

Создавать темы 05-Июн-2014 18:15

[Профиль]  [ЛС] 

azik-1993 ®

Стаж: 4 года 7 месяцев

Сообщений: 155

Симпатии: 23

838302azik-1993, да, это сообщение было модераторам
Вы вообще-то Азик написали?

Создавать темы 05-Июн-2014 23:41

[Профиль]  [ЛС] 

Eminem911

Стаж: 3 года 10 месяцев

Сообщений: 32

качайте очень интересный фильм раздаю

Создавать темы 08-Июн-2014 11:50

[Профиль]  [ЛС] 

Villain

Стаж: 7 лет 3 месяца

Сообщений: 61

Симпатии: 2

УЖЕ 3 раза этот релиз был залит в трекере, есть ли разница?(в качестве, в озвучке)

Создавать темы 21-Июн-2014 09:31

[Профиль]  [ЛС] 

chill

Стаж: 6 лет 9 месяцев

Сообщений: 55

Симпатии: 4

Спасибо!

Создавать темы 23-Июн-2014 19:44

[Профиль]  [ЛС] 
Показать сообщения:    
Ответить на тему

Текущее время: 21-Сен 22:52

Часовой пояс: UTC + 5



Вы не можете начинать темы
Вы не можете отвечать на сообщения
Вы не можете редактировать свои сообщения
Вы не можете удалять свои сообщения
Вы не можете голосовать в опросах
Вы не можете прикреплять файлы к сообщениям
Вы не можете скачивать файлы