Геракл: Начало легенды / The Legend of Hercules (Ренни Харлин) [2014 г., Боевик, фэнтези, BDRip]

Ответить на тему
 

Den27778 ®

Стаж: 3 года 8 месяцев

Сообщений: 32

Геракл: Начало легенды / The Legend of Hercules

Год выпуска: 2014
Страна: США
Жанр: Боевик, фэнтези
Продолжительность: 01:38:38
Перевод: Профессиональный (полное дублирование)
Режиссер: Ренни Харлин
В ролях: Келлан Латс, Скотт Эдкинс, Лиам МакИнтайр, Джая Уайсс, Лайам Гэрриган, Роксанна МакКи, Раде Шербеджия, Джонатон Шек, Люк Ньюберри, Кеннет Крэнэм
Описание: 1200 г. до н. э. Древняя Греция. Прекрасная царица Алкмена попала под чары грозного бога Олимпа — Зевса и родила ему сына Геракла. При рождении ему было предсказано стать величайшим воином, который будет властвовать над народами и принесет мир и процветание своей стране. Но пока Геракл ничего не знает о своем предназначении. Он вырос прекрасным и сильным юношей. Он мечтает о любви принцессы Крита, Гебы, которая обещана в жены его брату. Когда Геракл узнает о своей великой миссии, он должен выбрать: сбежать со своей любовью или исполнить свое предназначение.
Качество: BDRip
Формат: MKV
Аудио кодек: AC3
Видео: 1920x1080, 23.98 fps, 15,7 Mbps
Аудио: Рус: AC-3, 2 ch, 48 kHz, 192 kbps

MediaInfo

Complete name : ГЕРАКЛ НАЧАЛО ЛЕГЕНДЫ\ГЕРАКЛ НАЧАЛО ЛЕГЕНДЫ.mkv
Format : Matroska
Format version : Version 2
File size : 11.1 GiB
Duration : 1h 38mn
Overall bit rate mode : Variable
Overall bit rate : 16.2 Mbps
Movie name : HERCULES_3D_NNMClub.Title0.Bluray3DRip
Encoded date : UTC 2014-04-08 13:41:33
Writing library : libebml v0.7.8 + libmatroska v0.8.1
Video
ID : 1
Format : AVC
Format/Info : Advanced Video Codec
Format profile : [email protected]
Format settings, CABAC : Yes
Format settings, ReFrames : 2 frames
Codec ID : V_MPEG4/ISO/AVC
Duration : 1h 38mn
Bit rate mode : Variable
Bit rate : 15.7 Mbps
Maximum bit rate : 24.0 Mbps
Width : 1 920 pixels
Height : 1 080 pixels
Display aspect ratio : 16:9
Frame rate mode : Constant
Frame rate : 23.976 fps
Color space : YUV
Chroma subsampling : 4:2:0
Bit depth : 8 bits
Scan type : Progressive
Bits/(Pixel*Frame) : 0.315
Stream size : 10.8 GiB (97%)
Default : Yes
Forced : No
Audio
ID : 2
Format : AC-3
Format/Info : Audio Coding 3
Mode extension : CM (complete main)
Format settings, Endianness : Big
Codec ID : A_AC3
Duration : 1h 38mn
Bit rate mode : Constant
Bit rate : 192 Kbps
Channel(s) : 2 channels
Channel positions : Front: L R
Sampling rate : 48.0 KHz
Bit depth : 16 bits
Compression mode : Lossy
Stream size : 135 MiB (1%)
Language : Russian
Default : Yes
Forced : No

Скриншоты



Последний раз редактировалось: Den27778 (2014-06-08 00:10), всего редактировалось 2 раз(а)

Создавать темы 07-Июн-2014 23:25

[Профиль]  [ЛС] 

Страх

Стаж: 3 года 11 месяцев

Сообщений: 1131

Симпатии: 448

Добавьте Постер. и скриншоты

Создавать темы 07-Июн-2014 23:31

[Профиль]  [ЛС] 

Den27778 ®

Стаж: 3 года 8 месяцев

Сообщений: 32

839528Добавьте Постер. и скриншоты
вроде есть они

Создавать темы 07-Июн-2014 23:33

[Профиль]  [ЛС] 

Slapper

Стаж: 3 года 10 месяцев

Сообщений: 2193

Симпатии: 213

постер залейте другой, пока не поздно, там сверху ссылочка (реклама)

Создавать темы 07-Июн-2014 23:50

[Профиль]  [ЛС] 

morozko

Стаж: 6 лет 8 месяцев

Сообщений: 83

Симпатии: 17

поддерживаю

Создавать темы 08-Июн-2014 17:41

[Профиль]  [ЛС] 

Den27778 ®

Стаж: 3 года 8 месяцев

Сообщений: 32

Создавать темы 09-Июн-2014 16:22

[Профиль]  [ЛС] 

gold_man

Стаж: 8 лет

Сообщений: 162

Симпатии: 18

может хотябы на пару часиков на полную раздашь? 3 недели качаю уже

Создавать темы 03-Июл-2014 14:21

[Профиль]  [ЛС] 

Den27778 ®

Стаж: 3 года 8 месяцев

Сообщений: 32

gold_man,
приезжай я тебе его запишу на хард

Создавать темы 04-Июл-2014 07:37

[Профиль]  [ЛС] 

gold_man

Стаж: 8 лет

Сообщений: 162

Симпатии: 18

Den27778, 24 мб осталось.....

Создавать темы 05-Июл-2014 22:26

[Профиль]  [ЛС] 
Показать сообщения:    
Ответить на тему

Текущее время: 24-Сен 20:50

Часовой пояс: UTC + 5



Вы не можете начинать темы
Вы не можете отвечать на сообщения
Вы не можете редактировать свои сообщения
Вы не можете удалять свои сообщения
Вы не можете голосовать в опросах
Вы не можете прикреплять файлы к сообщениям
Вы не можете скачивать файлы