Джек Райан: Теория хаоса / Jack Ryan: Shadow Recruit (Кеннет Брэна) [2014 г., Боевик, триллер, детектив, BDRip-AVC] [Лицензия]

Ответить на тему
 

Akmal89 ®

Стаж: 5 лет 5 месяцев

Сообщений: 237

Симпатии: 99

-- Год выпуска: 2013
Страна: США, Россия
Жанр: боевик, триллер, детектив
Продолжительность: 01:45:32
Перевод: Дублированный [Лицензия]--Режиссер: Кеннет Брэна--В ролях: Крис Пайн, Кира Найтли, Кевин Костнер, Кеннет Брэна, Алек Утгофф, Джемма Чан, Петер Андерссон, Елена Великанова, Нонсо Анози, Колм Фиор--Описание: Являющийся финансовым аналитиком Райан переезжает в Москву для работы на некоего миллиардера. И именно этот нувориш обставит дела таким образом,
чтобы на Райна пали все подозрения в организации террористического сговора с целью обрушить экономику США. И Джеку не остается ничего иного,
как попытаться одновременно очистить свое имя, обезвредить заговор и спасти жену, взятую миллиардером в заложники.
--бюджет: $60 000 000
сборы в США:$50 577 412
сборы в мире: + $84 926 336 = $135 503 748
сборы в России: $3 655 329--   --Качество: BDRip-AVC
Формат: MKV
Видео кодек: H.264
Аудио кодек: AC3
Видео: 1032x432, 23,976 fps, 2061 Кbps
Аудио 1: russian / 48 kHz, AC3 Dolby Digital, 3/2 (L,C,R,l,r) + LFE ch, 448.00
Аудио 2: english / 48 kHz, AC3 Dolby Digital, 3/2 (L,C,R,l,r) + LFE ch, 448.00
--

MediaInfo

D:\Torrents Downloads\Ok\Dzhek.Rayn.Teoriya.Haosa.2014.DUAL.BDRip.х264.tas-ix.net.mkv
General
Unique ID : 187714121567721198003178669039988534586 (0x8D386CBDCD891FCB9F1E0C2543CC6D3A)
Complete name : D:\Torrents Downloads\Ok\Dzhek.Rayn.Teoriya.Haosa.2014.DUAL.BDRip.х264.tas-ix.net.mkv
Format : Matroska
Format version : Version 4 / Version 2
File size : 2.18 GiB
Duration : 1h 45mn
Overall bit rate : 2 958 Kbps
Movie name : HELLYWOOD - rip by potroks
Encoded date : UTC 2014-05-17 07:11:20
Writing application : mkvmerge v5.9.0 ('On The Loose') built on Dec 15 2012 16:39:58
Writing library : libebml v1.3.0 + libmatroska v1.4.0
Video #1
ID : 1
Format : AVC
Format/Info : Advanced Video Codec
Format profile : [email protected]
Format settings, CABAC : Yes
Format settings, ReFrames : 10 frames
Codec ID : V_MPEG4/ISO/AVC
Duration : 1h 45mn
Bit rate : 2 061 Kbps
Width : 1 032 pixels
Height : 432 pixels
Display aspect ratio : 2.40:1
Frame rate mode : Constant
Frame rate : 23.976 fps
Color space : YUV
Chroma subsampling : 4:2:0
Bit depth : 8 bits
Scan type : Progressive
Bits/(Pixel*Frame) : 0.193
Stream size : 1.48 GiB (68%)
Title : Jack Ryan: Shadow Recruit
Writing library : x264 core 130 r2273 b3065e6
Encoding settings : cabac=1 / ref=10 / deblock=1:-3:-2 / analyse=0x3:0x133 / me=umh / subme=11 / psy=1 / psy_rd=0.98:0.02 / mixed_ref=1 / me_range=32 / chroma_me=1 / trellis=2 / 8x8dct=1 / cqm=0 / deadzone=21,11 / fast_pskip=0 / chroma_qp_offset=-3 / threads=9 / lookahead_threads=6 / sliced_threads=0 / nr=0 / decimate=0 / interlaced=0 / bluray_compat=0 / constrained_intra=0 / bframes=11 / b_pyramid=2 / b_adapt=2 / b_bias=0 / direct=3 / weightb=1 / open_gop=0 / weightp=2 / keyint=250 / keyint_min=23 / scenecut=40 / intra_refresh=0 / rc_lookahead=60 / rc=2pass / mbtree=0 / bitrate=2061 / ratetol=1.0 / qcomp=0.70 / qpmin=0 / qpmax=69 / qpstep=4 / cplxblur=20.0 / qblur=0.5 / vbv_maxrate=20000 / vbv_bufsize=20000 / nal_hrd=none / ip_ratio=1.35 / pb_ratio=1.25 / aq=1:0.90
Language : English
Default : Yes
Forced : No
Audio #2
ID : 2
Format : AC-3
Format/Info : Audio Coding 3
Mode extension : CM (complete main)
Format settings, Endianness : Big
Codec ID : A_AC3
Duration : 1h 45mn
Bit rate mode : Constant
Bit rate : 448 Kbps
Channel(s) : 6 channels
Channel positions : Front: L C R, Side: L R, LFE
Sampling rate : 48.0 KHz
Bit depth : 16 bits
Compression mode : Lossy
Stream size : 338 MiB (15%)
Title : Dub | DD 5.1 @ 448 kbps - BD CEE
Language : Russian
Default : Yes
Forced : Yes
Audio #3
ID : 3
Format : AC-3
Format/Info : Audio Coding 3
Mode extension : CM (complete main)
Format settings, Endianness : Big
Codec ID : A_AC3
Duration : 1h 45mn
Bit rate mode : Constant
Bit rate : 448 Kbps
Channel(s) : 6 channels
Channel positions : Front: L C R, Side: L R, LFE
Sampling rate : 48.0 KHz
Bit depth : 16 bits
Compression mode : Lossy
Stream size : 338 MiB (15%)
Title : Original | DD 5.1 @ 448 kbps
Language : English
Default : No
Forced : No
Text #4
ID : 4
Format : UTF-8
Codec ID : S_TEXT/UTF8
Codec ID/Info : UTF-8 Plain Text
Language : Russian
Default : No
Forced : No
Text #5
ID : 5
Format : UTF-8
Codec ID : S_TEXT/UTF8
Codec ID/Info : UTF-8 Plain Text
Title : Full
Language : English
Default : No
Forced : No
Text #6
ID : 6
Format : UTF-8
Codec ID : S_TEXT/UTF8
Codec ID/Info : UTF-8 Plain Text
Title : SDH
Language : English
Default : No
Forced : No
Text #7
ID : 7
Format : UTF-8
Codec ID : S_TEXT/UTF8
Codec ID/Info : UTF-8 Plain Text
Title : SDH-Colored
Language : English
Default : No
Forced : No
Menu
00:05:45.470 : en:(01)00:05:45:470
00:12:02.471 : en:(02)00:12:02:471
00:18:11.006 : en:(03)00:18:11:006
00:23:38.792 : en:(04)00:23:38:792
00:31:19.794 : en:(05)00:31:19:794
00:40:26.298 : en:(06)00:40:26:298
00:48:47.466 : en:(07)00:48:47:466
00:57:28.069 : en:(08)00:57:28:069
01:06:19.642 : en:(09)01:06:19:642
01:13:07.466 : en:(10)01:13:07:466
01:21:53.867 : en:(11)01:21:53:867
01:27:07.096 : en:(12)01:27:07:096
01:35:21.507 : en:(13)01:35:21:507
01:38:55.054 : en:(14)01:38:55:054
01:45:32.117 : en:(15)01:45:32:117

Скриншоты

Создавать темы 07-Июн-2014 23:51

[Профиль]  [ЛС] 
Показать сообщения:    
Ответить на тему

Текущее время: 22-Авг 14:05

Часовой пояс: UTC + 5



Вы не можете начинать темы
Вы не можете отвечать на сообщения
Вы не можете редактировать свои сообщения
Вы не можете удалять свои сообщения
Вы не можете голосовать в опросах
Вы не можете прикреплять файлы к сообщениям
Вы не можете скачивать файлы