Охотники за сокровищами / The Monuments Men / Джордж Клуни [2014, боевик, драма, военный, BDRip] [Лицензия]

Ответить на тему
 

Akmal89 ®

Стаж: 5 лет 4 месяца

Сообщений: 237

Симпатии: 99

- -«Крупнейшее ограбление в истории искусства» Год выпуска: 2014
Страна: США, Германия
Жанр: военный, драма, комедия
Продолжительность: 01:58:23
Перевод: Дублированный [Лицензия] --Режиссер: Джордж Клуни--В ролях: Джордж Клуни, Мэтт Дэймон, Билл Мюррей, Джон Гудман, Жан Дюжарден, Боб Бэлабан, Хью Бонневилль, Кейт Бланшетт, Димитрий Леонидас, Юстус фон Донаньи--Описание: Фильм основан на реальных событиях — величайшей охоте на сокровища в истории. Во время Второй мировой войны команда из искусствоведов и хранителей музеев объединяется, чтобы спасти известные произведения искусства, похищенные нацистами, прежде чем те успеют их уничтожить.-- --Качество: BDRip
Формат: MKV
Видео кодек: H264
Аудио кодек: AC3
Видео: MPEG-4 AVC, 1024 x 426, 23.976 fps, 1 601 Кбит/сек
Аудио#1: russian (AC3, 6 ch, 448 Кбит/с), english (AC3, 6 ch, 384 Кбит/с)
---

Media Info

D:\Torrents Downloads\Ok\Ohotniki.za.sokrovischami.2014.DUAL.BDRip.х264.tas-ix.net.mkv
General
Unique ID : 204730465170706013486347943361587499692 (0x9A05A7414B4AE5D89B77A24B3D58D2AC)
Complete name : D:\Torrents Downloads\Ok\Ohotniki.za.sokrovischami.2014.DUAL.BDRip.х264.tas-ix.net.mkv
Format : Matroska
Format version : Version 2
File size : 2.02 GiB
Duration : 1h 58mn
Overall bit rate : 2 438 Kbps
Movie name : The Monuments Men from Exkinoray
Encoded date : UTC 2014-05-29 21:17:59
Writing application : mkvmerge v5.6.0 ('Kenya Kane') built on May 27 2012 16:44:04
Writing library : libebml v1.2.3 + libmatroska v1.3.0
Video #1
ID : 1
Format : AVC
Format/Info : Advanced Video Codec
Format profile : [email protected]
Format settings, CABAC : Yes
Format settings, ReFrames : 8 frames
Codec ID : V_MPEG4/ISO/AVC
Duration : 1h 58mn
Bit rate : 1 601 Kbps
Width : 1 024 pixels
Height : 426 pixels
Display aspect ratio : 2.40:1
Frame rate mode : Constant
Frame rate : 23.976 fps
Color space : YUV
Chroma subsampling : 4:2:0
Bit depth : 8 bits
Scan type : Progressive
Bits/(Pixel*Frame) : 0.153
Stream size : 1.29 GiB (64%)
Title : Enigma-Vladislav71
Writing library : x264 core 116 r2044 392e762
Encoding settings : cabac=1 / ref=8 / deblock=1:-2:-1 / analyse=0x3:0x113 / me=umh / subme=9 / psy=1 / psy_rd=1.00:0.20 / mixed_ref=1 / me_range=32 / chroma_me=1 / trellis=2 / 8x8dct=1 / cqm=0 / deadzone=21,11 / fast_pskip=0 / chroma_qp_offset=-3 / threads=12 / sliced_threads=0 / nr=0 / decimate=0 / interlaced=0 / bluray_compat=0 / constrained_intra=0 / bframes=8 / b_pyramid=2 / b_adapt=2 / b_bias=0 / direct=3 / weightb=1 / open_gop=0 / weightp=2 / keyint=240 / keyint_min=23 / scenecut=40 / intra_refresh=0 / rc=2pass / mbtree=0 / bitrate=1601 / ratetol=1.0 / qcomp=0.60 / qpmin=0 / qpmax=69 / qpstep=4 / cplxblur=20.0 / qblur=0.5 / ip_ratio=1.40 / pb_ratio=1.30 / aq=1:1.00
Default : Yes
Forced : No
Audio #2
ID : 2
Format : AC-3
Format/Info : Audio Coding 3
Mode extension : CM (complete main)
Format settings, Endianness : Big
Codec ID : A_AC3
Duration : 1h 58mn
Bit rate mode : Constant
Bit rate : 448 Kbps
Channel(s) : 6 channels
Channel positions : Front: L C R, Side: L R, LFE
Sampling rate : 48.0 KHz
Bit depth : 16 bits
Compression mode : Lossy
Stream size : 379 MiB (18%)
Title : Дублированный (Лицензия)
Language : Russian
Default : Yes
Forced : No
Audio #3
ID : 3
Format : AC-3
Format/Info : Audio Coding 3
Mode extension : CM (complete main)
Format settings, Endianness : Big
Codec ID : A_AC3
Duration : 1h 58mn
Bit rate mode : Constant
Bit rate : 384 Kbps
Channel(s) : 6 channels
Channel positions : Front: L C R, Side: L R, LFE
Sampling rate : 48.0 KHz
Bit depth : 16 bits
Compression mode : Lossy
Stream size : 325 MiB (16%)
Language : English
Default : No
Forced : No
Text #4
ID : 4
Format : UTF-8
Codec ID : S_TEXT/UTF8
Codec ID/Info : UTF-8 Plain Text
Language : English
Default : No
Forced : No
Text #5
ID : 5
Format : UTF-8
Codec ID : S_TEXT/UTF8
Codec ID/Info : UTF-8 Plain Text
Title : SDH
Language : English
Default : No
Forced : No
Text #6
ID : 6
Format : UTF-8
Codec ID : S_TEXT/UTF8
Codec ID/Info : UTF-8 Plain Text
Title : Forced
Language : English
Default : No
Forced : No
Text #7
ID : 7
Format : UTF-8
Codec ID : S_TEXT/UTF8
Codec ID/Info : UTF-8 Plain Text
Language : Russian
Default : No
Forced : No
Menu
00:00:00.000 : en:00:00:00.000
00:04:41.573 : en:00:04:41.573
00:16:01.961 : en:00:16:01.961
00:20:13.963 : en:00:20:13.963
00:23:37.458 : en:00:23:37.458
00:27:12.840 : en:00:27:12.840
00:31:36.812 : en:00:31:36.812
00:40:37.977 : en:00:40:37.977
00:50:40.579 : en:00:50:40.579
00:53:31.375 : en:00:53:31.375
00:59:36.448 : en:00:59:36.448
01:00:52.816 : en:01:00:52.816
01:17:06.914 : en:01:17:06.914
01:21:50.531 : en:01:21:50.531
01:33:08.333 : en:01:33:08.333
01:46:26.672 : en:01:46:26.672

Скриншоты

Создавать темы 08-Июн-2014 09:18

[Профиль]  [ЛС] 

sanjar0049

Стаж: 5 лет 4 месяца

Сообщений: 35

Симпатии: 1

помогите докачать пожалуйста остановился на 97,2%

Создавать темы 19-Июн-2014 16:46

[Профиль]  [ЛС] 
Показать сообщения:    
Ответить на тему

Текущее время: 18-Авг 09:58

Часовой пояс: UTC + 5



Вы не можете начинать темы
Вы не можете отвечать на сообщения
Вы не можете редактировать свои сообщения
Вы не можете удалять свои сообщения
Вы не можете голосовать в опросах
Вы не можете прикреплять файлы к сообщениям
Вы не можете скачивать файлы