Дамир Валитов - Семинар монета. [Монеты., DVDRip, RUS] (Видеоурок)

Ответить на тему
 

Astrolog ®

Стаж: 5 лет 4 месяца

Сообщений: 213

Симпатии: 27

Дамир Валитов - Семинар монета.
Страна: Россия
Тематика: Монеты
Тип раздаваемого материала: Видеоурок
Продолжительность: 1:26:25
Язык: Русский
Перевод: Не требуется
Описание: Новый семинар от уникального манипулятора Дамира Валитова - это набор приёмов, фокусов, связок с самой обычной монетой. Никакой подготовки, никакого реквизита, кроме обыкновенной монет.
Уникальный семинар Дамира Валитова!
Доп. информация: По ходу файла есть некие посторонние шумы - так было в оригинале скаченного мною файла. Как убрать - не ведаю, но существенно просмотру и пониманию видеоурока не мешает.
Качество: DVDRip
Формат: MP4
Видео кодек: MPEG4 Video (H264) 480x360 25fps 348kbps [V: h264 constrained baseline L3.0, yuv420p, 480x360, 348 kb/s]
Аудио кодек: AAC 44100Hz stereo 127kbps [A: SoundHandler (aac, 44100 Hz, stereo, 127 kb/s)]

MediaInfo

General
Complete name : D:\Интернет\Загрузки DM\Манипуляции с монетами Фигасебе, Дамир Валитов.mp4
Format : MPEG-4
Format profile : Base Media
Codec ID : isom
File size : 297 MiB
Duration : 1h 26mn
Overall bit rate mode : Variable
Overall bit rate : 480 Kbps
Writing application : Lavf52.40.0
Video
ID : 1
Format : AVC
Format/Info : Advanced Video Codec
Format profile : [email protected]
Format settings, CABAC : No
Format settings, ReFrames : 1 frame
Codec ID : avc1
Codec ID/Info : Advanced Video Coding
Duration : 1h 26mn
Bit rate : 340 Kbps
Width : 480 pixels
Height : 360 pixels
Display aspect ratio : 4:3
Frame rate mode : Constant
Frame rate : 25.000 fps
Color space : YUV
Chroma subsampling : 4:2:0
Bit depth : 8 bits
Scan type : Progressive
Bits/(Pixel*Frame) : 0.079
Stream size : 215 MiB (72%)
Writing library : x264 core 79
Encoding settings : cabac=0 / ref=1 / deblock=1:0:0 / analyse=0x1:0x131 / me=tesa / subme=9 / psy=1 / psy_rd=1.0:0.0 / mixed_ref=0 / me_range=24 / chroma_me=1 / trellis=0 / 8x8dct=0 / cqm=0 / deadzone=21,11 / chroma_qp_offset=-2 / threads=24 / nr=0 / decimate=1 / mbaff=0 / constrained_intra=0 / bframes=0 / wpredp=0 / keyint=250 / keyint_min=25 / scenecut=40 / rc_lookahead=40 / rc=cbr / mbtree=1 / bitrate=340 / ratetol=11.8 / qcomp=0.60 / qpmin=10 / qpmax=51 / qpstep=4 / vbv_maxrate=10000 / vbv_bufsize=10000 / ip_ratio=1.41 / aq=1:1.00
Audio
ID : 2
Format : AAC
Format/Info : Advanced Audio Codec
Format profile : LC
Codec ID : 40
Duration : 1h 26mn
Bit rate mode : Variable
Bit rate : 128 Kbps
Channel(s) : 2 channels
Channel positions : Front: L R
Sampling rate : 44.1 KHz
Compression mode : Lossy
Stream size : 79.1 MiB (27%)

Скриншоты



Последний раз редактировалось: Astrolog (2014-06-13 11:56), всего редактировалось 1 раз

Создавать темы 09-Июн-2014 09:50

[Профиль]  [ЛС] 

Astrolog ®

Стаж: 5 лет 4 месяца

Сообщений: 213

Симпатии: 27

Ребят, не знаю, почему остановилась раздача на 99%, всё прочее работает на ура:

Скриншоты

Может, обновить торрент-файл?

Создавать темы 13-Июн-2014 09:31

[Профиль]  [ЛС] 

Astrolog ®

Стаж: 5 лет 4 месяца

Сообщений: 213

Симпатии: 27

Всем, всем, всем!
Обновите, пожалуйста, торрент-файл!
Простите за доставленные неудобства.

Создавать темы 13-Июн-2014 11:56

[Профиль]  [ЛС] 

Az1

Стаж: 5 лет

Сообщений: 62

Спасибо!

Создавать темы 24-Сен-2014 01:39

[Профиль]  [ЛС] 
Показать сообщения:    
Ответить на тему

Текущее время: 23-Окт 03:52

Часовой пояс: UTC + 5



Вы не можете начинать темы
Вы не можете отвечать на сообщения
Вы не можете редактировать свои сообщения
Вы не можете удалять свои сообщения
Вы не можете голосовать в опросах
Вы не можете прикреплять файлы к сообщениям
Вы не можете скачивать файлы