Не отступать и не сдаваться / No Retreat, No Surrender (Кори Юэнь / Corey Yuen) [1986, США, Гонконг, Боевик, драма, BDRip] DVO (НТВ+) + DVO (СТС)

Ответить на тему
 

razor2011 ®

Стаж: 5 лет 2 месяца

Сообщений: 227

Симпатии: 37

Не отступать и не сдаваться / No Retreat, No Surrender«Tonight, He either fights for his life or he'll be running for the rest of it»- Год выпуска: 1986
Выпущено: США, Гонконг / Balcor Film Investors, New World Pictures
Жанр: боевик, драма
Продолжительность: 01:38:50
Перевод (1): Профессиональный (двухголосый закадровый) НТВ+
Перевод (2): Профессиональный (двухголосый закадровый) СТС
Cубтитры: нет-Режиссер:
Кори Юэнь / Corey Yuen-В ролях:
Курт МакКинни (Jason Stillwell), Жан-Клод Ван Дамм (Ivan Kraschinsky the Russian), Дж.В. У. (R.J. Madison), Кэти Сайлено (Kelly Reilly), Таи Чунг Ким (Sensei Lee), Кент Липэм (Scott), Рон Понел (Ian Reilly), Дэйл Джейкоби (Dean Ramsay), Питер Каннингэм (Frank Peters), Тимоти Д. Бэйкер (Tom Stillwell)-Описание:
Парнишка, изучающий восточные единоборства и мечтающий стать чемпионом, бесстрашно вступает в борьбу с уголовниками и шпаной и зарабатывает сперва лишь синяки и насмешки окружающих. Но в награду за проявленную силу духа, настойчивость и упорную работу на тренировках до седьмого пота, ему начинает покровительствовать и обучать его всем секретам мастерства дух самого Брюса Ли. И, сразившись в большом турнире с грозным русским противником, молодой американский кикбоксер сенсационно, вопреки ожиданиям зрителей и прогнозам специалистов, побеждает.-IMDB | КиноПоиск |-Качество: BDRip [Blu-Ray Disc]
Формат: AVI
Видео: 704x384 (1.83:1), 24.000 fps, XviD build 73 ~1709 kbps avg, 0.26 bit/pixel
Аудио #1: 48 kHz, AC3 Dolby Digital, 2/0 (L,R) ch, ~192.00 kbps avg (DVO) НТВ+
Аудио #2: 48 kHz, AC3 Dolby Digital, 2/0 (L,R) ch, ~192.00 kbps avg (DVO) СТС-

Скриншоты



MediaInfo

General
Complete name                            : D:\Ne_otstupat’_i_ne_sdavat’sya_1986_BDRip_by_Dalemake.avi
Format                                   : AVI
Format/Info                              : Audio Video Interleave
File size                                : 1.45 GiB
Duration                                 : 1h 38mn
Overall bit rate                         : 2 107 Kbps
Writing application                      : VirtualDubMod 1.5.10.3 | www.virtualdub-fr.org || (build 2550/release)
Writing library                          : VirtualDubMod build 2550/release
Video
ID                                       : 0
Format                                   : MPEG-4 Visual
Format profile                           : Advanced [email protected]
Format settings, BVOP                    : 1
Format settings, QPel                    : No
Format settings, GMC                     : No warppoints
Format settings, Matrix                  : Custom
Codec ID                                 : XVID
Codec ID/Hint                            : XviD
Duration                                 : 1h 38mn
Bit rate                                 : 1 711 Kbps
Width                                    : 704 pixels
Height                                   : 384 pixels
Display aspect ratio                     : 1.85:1
Frame rate                               : 24.000 fps
Color space                              : YUV
Chroma subsampling                       : 4:2:0
Bit depth                                : 8 bits
Scan type                                : Progressive
Compression mode                         : Lossy
Bits/(Pixel*Frame)                       : 0.264
Stream size                              : 1.18 GiB (81%)
Writing library                          : XviD 73
Audio #1
ID                                       : 1
Format                                   : AC-3
Format/Info                              : Audio Coding 3
Format profile                           : Dolby Digital
Mode extension                           : CM (complete main)
Format settings, Endianness              : Big
Codec ID                                 : 2000
Duration                                 : 1h 38mn
Bit rate mode                            : Constant
Bit rate                                 : 192 Kbps
Channel(s)                               : 2 channels
Channel positions                        : Front: L R
Sampling rate                            : 48.0 KHz
Bit depth                                : 16 bits
Compression mode                         : Lossy
Stream size                              : 135 MiB (9%)
Alignment                                : Split accross interleaves
Interleave, duration                     : 42 ms (1.00 video frame)
Interleave, preload duration             : 500 ms
Audio #2
ID                                       : 2
Format                                   : AC-3
Format/Info                              : Audio Coding 3
Format profile                           : Dolby Digital
Mode extension                           : CM (complete main)
Format settings, Endianness              : Big
Codec ID                                 : 2000
Duration                                 : 1h 38mn
Bit rate mode                            : Constant
Bit rate                                 : 192 Kbps
Channel(s)                               : 2 channels
Channel positions                        : Front: L R
Sampling rate                            : 48.0 KHz
Bit depth                                : 16 bits
Compression mode                         : Lossy
Stream size                              : 135 MiB (9%)
Alignment                                : Split accross interleaves
Interleave, duration                     : 42 ms (1.00 video frame)
Interleave, preload duration             : 500 ms

Создавать темы 09-Июн-2014 10:24

[Профиль]  [ЛС] 

Топик был перенесен из форума Зарубежное кино в форум Фильмы до 2010
Mixer City

Создавать темы 15-Июн-2014 01:25

 

razor2011 ®

Стаж: 5 лет 2 месяца

Сообщений: 227

Симпатии: 37

незачто

Создавать темы 17-Июн-2014 20:31

[Профиль]  [ЛС] 
Показать сообщения:    
Ответить на тему

Текущее время: 24-Ноя 12:31

Часовой пояс: UTC + 5



Вы не можете начинать темы
Вы не можете отвечать на сообщения
Вы не можете редактировать свои сообщения
Вы не можете удалять свои сообщения
Вы не можете голосовать в опросах
Вы не можете прикреплять файлы к сообщениям
Вы не можете скачивать файлы