13-й район / Banlieue 13 (Пьер Морель) [2004 г., Фантастика, боевик, BDRip]

Ответить на тему
 

beka755 ®

Стаж: 3 года 9 месяцев

Сообщений: 229

Симпатии: 15

- -13-й район / Banlieue 13-«Welcome to District B13 Welcome to the future»- -Год выпуска: 2004
Страна: Франция
Жанр: Фантастика, боевик
Продолжительность: 01:24:31
Перевод: Профессиональный (полное дублирование)
Режиссер: Пьер Морель- В ролях: Дани Вериссимо , Сирил Раффаэлли , Дэвид Бель , Тони Д'Амарио , Биби Насери , Франсуа Шатто.- Описание: 2010 год, Париж, из-за разгула преступности некоторые особо опасные районы французской столицы превращены в закрытые зоны и отгорожены от благополучных кварталов бетонной стеной. За ней бурлит совсем другая жизнь: здесь процветает торговля наркотиками и оружием, здесь даже дети не выходят из дома без оружия, здесь давно не работают школы и поликлиники, здесь полиция не стоит на страже закона, а лишь защищает себя или же сама поддерживает беззаконие.
Главарю одной из банд удается завладеть нейтронной бомбой. Чтобы обезвредить ее, в 13-й район отправляется офицер спецназ Дамьен. Проникать в опасные зоны — его профессия, однако на этот раз ему все-таки нужен проводник. Союзником Дамьена становится Лейто, отчаянный парень, сестра которого похищена тем же самым главарем.-Качество: BDRip
Формат: AVI
Видео кодек: XviD
Аудио кодек: AC3
Видео: Xvid 720x304 24fps
Аудио: Dolby AC3 48000Hz 6ch 448kbps-

Скриншоты



-

MediaInfo

General
Complete name :13-y.rayon.RERIP.2004.RUS.BDRip.XviD.AC3.-HQCLUB.avi
Format : AVI
Format/Info : Audio Video Interleave
File size : 1.45 GiB
Duration : 1h 24mn
Overall bit rate : 2 452 Kbps
Movie name : 13-y.rayon.RERIP.2004.RUS.BDRip.XviD.AC3.-HQCLUB
Director : kingsize87
Writing application : VirtualDubMod 1.5.10.2 (build 2542/release)
Copyright : http://hqclub.net
Comment : 21.12.2010
Video
ID : 0
Format : MPEG-4 Visual
Format profile : Advanced [email protected]
Format settings, BVOP : Yes
Format settings, QPel : No
Format settings, GMC : No warppoints
Format settings, Matrix : Custom
Codec ID : XVID
Codec ID/Hint : XviD
Duration : 1h 24mn
Bit rate : 1 995 Kbps
Width : 720 pixels
Height : 304 pixels
Display aspect ratio : 2.35:1
Frame rate : 24.000 fps
Color space : YUV
Chroma subsampling : 4:2:0
Bit depth : 8 bits
Scan type : Progressive
Compression mode : Lossy
Bits/(Pixel*Frame) : 0.380
Stream size : 1.18 GiB (81%)
Writing library : XviD 1.2.1 (UTC 2008-12-04)
Audio
ID : 1
Format : AC-3
Format/Info : Audio Coding 3
Mode extension : CM (complete main)
Format settings, Endianness : Big
Codec ID : 2000
Duration : 1h 24mn
Bit rate mode : Constant
Bit rate : 448 Kbps
Channel(s) : 6 channels
Channel positions : Front: L C R, Side: L R, LFE
Sampling rate : 48.0 KHz
Bit depth : 16 bits
Compression mode : Lossy
Stream size : 271 MiB (18%)
Alignment : Split accross interleaves
Interleave, duration : 42 ms (1.00 video frame)
Interleave, preload duration : 500 ms
-


Последний раз редактировалось: beka755 (2014-06-10 12:06), всего редактировалось 2 раз(а)

Создавать темы 10-Июн-2014 00:05

[Профиль]  [ЛС] 

Anti_Virus

Стаж: 6 лет 6 месяцев

Сообщений: 22

Симпатии: 5

beka755, в поиск вбей этого фильма куча, лучше влейся в раздачу что существуют

Создавать темы 10-Июн-2014 00:31

[Профиль]  [ЛС] 

azik-1993

Стаж: 4 года 7 месяцев

Сообщений: 155

Симпатии: 23

beka755, Где kbps видео?

Создавать темы 10-Июн-2014 02:19

[Профиль]  [ЛС] 

beka755 ®

Стаж: 3 года 9 месяцев

Сообщений: 229

Симпатии: 15

Anti_Virus,у нас на трекере нормальной раздачи 13 района!!!!НЕТУ!!

Создавать темы 10-Июн-2014 11:26

[Профиль]  [ЛС] 

Lion31

Стаж: 6 лет 7 месяцев

Сообщений: 83

Симпатии: 2

beka755, Спасибо а скачать будем релез от HQCLUB этот супер

Создавать темы 10-Июн-2014 15:25

[Профиль]  [ЛС] 

Zofa

Стаж: 6 лет 11 месяцев

Сообщений: 16

Симпатии: 1

пусть раздает,а то действительно,долго не мог скачать этот фильм с другого релиза. +1

Создавать темы 10-Июн-2014 17:45

[Профиль]  [ЛС] 
Показать сообщения:    
Ответить на тему

Текущее время: 20-Сен 01:51

Часовой пояс: UTC + 5



Вы не можете начинать темы
Вы не можете отвечать на сообщения
Вы не можете редактировать свои сообщения
Вы не можете удалять свои сообщения
Вы не можете голосовать в опросах
Вы не можете прикреплять файлы к сообщениям
Вы не можете скачивать файлы