Закрытая система / Замкнутая система / Uklad zamkniety / The Closed Circuit (Рышард Бугайский) [2013, Криминальная драма, триллер, реальные события, HDRip]

Ответить на тему
 

Каротажник ®

Стаж: 4 года 1 месяц

Сообщений: 195

Симпатии: 211

Закрытая система / Замкнутая система / Uklad zamkniety / The Closed Circuit

Год выпуска: 2013
Страна: Польша
Жанр: Криминальная драма, триллер, реальные события

Продолжительность: 01:54:34
Перевод: Любительское (одноголосое) [Pashaup]

Режиссёр: Рышард Бугайский
В ролях: Януш Гайос, Казимеж Качор, Войчех Жоладкович, Роберт Олеч, Пжемыслав Садовски, Магдалена Куморек, Моника Квятковска, Беата Щцыбакувна, Ярослав Копачевски, Мария Мамона

Основанная на реальных событиях, произошедших буквально несколько лет назад в Польше, эта картина расскажет нам историю трёх друзей-бизнесменов, являющихся хозяевами преуспевающей фирмы. Однако из-за того, что они не пошли на поводу у коррумпированных чиновников, они теперь оказываются под следствием и должны доказать свою невиновность, иначе им грозит потеря не только компании, но и свободы.
]



Качество: HDRip
Формат: Avi

Видео: Xvid 720x304 25fps 1367kbps
Аудио: AC3 48000Hz 6ch 448kbps

Media Info

Format : AVI
Format/Info : Audio Video Interleave
File size : 1.46 GiB
Duration : 1h 54mn
Overall bit rate : 1 825 Kbps
Writing application : VirtualDubMod 1.5.10.2 (build 2540/release)
Writing library : VirtualDubMod build 2540/release
Video
ID : 0
Format : MPEG-4 Visual
Format profile : Advanced [email protected]
Format settings, BVOP : No
Format settings, QPel : No
Format settings, GMC : No warppoints
Format settings, Matrix : Custom
Codec ID : XVID
Codec ID/Hint : XviD
Duration : 1h 54mn
Bit rate : 1 367 Kbps
Width : 720 pixels
Height : 304 pixels
Display aspect ratio : 2.35:1
Frame rate : 25.000 fps
Color space : YUV
Chroma subsampling : 4:2:0
Bit depth : 8 bits
Scan type : Progressive
Compression mode : Lossy
Bits/(Pixel*Frame) : 0.250
Stream size : 1.09 GiB (75%)
Writing library : XviD 73
Audio
ID : 1
Format : AC-3
Format/Info : Audio Coding 3
Mode extension : CM (complete main)
Format settings, Endianness : Big
Codec ID : 2000
Duration : 1h 54mn
Bit rate mode : Constant
Bit rate : 448 Kbps
Channel(s) : 6 channels
Channel positions : Front: L C R, Side: L R, LFE
Sampling rate : 48.0 KHz
Bit depth : 16 bits
Compression mode : Lossy
Stream size : 367 MiB (25%)
Alignment : Split accross interleaves
Interleave, duration : 40 ms (1.00 video frame)
Interleave, preload duration : 500 ms
Language : Polish

Скриншоты


Создавать темы 10-Июн-2014 11:23

[Профиль]  [ЛС] 

Xuri007

Стаж: 5 лет 5 месяцев

Сообщений: 106

а будет-ли другой перевод? хотя-бы многоголосный?

Создавать темы 10-Июн-2014 13:25

[Профиль]  [ЛС] 

Каротажник ®

Стаж: 4 года 1 месяц

Сообщений: 195

Симпатии: 211

Xuri007, может да а может и нет

Создавать темы 10-Июн-2014 13:33

[Профиль]  [ЛС] 

azik-1993

Стаж: 4 года 9 месяцев

Сообщений: 155

Симпатии: 23

Setora, Спасибо за релиз

Создавать темы 10-Июн-2014 15:17

[Профиль]  [ЛС] 
Показать сообщения:    
Ответить на тему

Текущее время: 20-Ноя 09:15

Часовой пояс: UTC + 5



Вы не можете начинать темы
Вы не можете отвечать на сообщения
Вы не можете редактировать свои сообщения
Вы не можете удалять свои сообщения
Вы не можете голосовать в опросах
Вы не можете прикреплять файлы к сообщениям
Вы не можете скачивать файлы