Дорога / Highway (Имтиаз Али) [2014г., индия , HDRip ]

Ответить на тему
 

azik-1993 ®

Стаж: 4 года 10 месяцев

Сообщений: 155

Симпатии: 23

Дорога / Highway-- Год выпуска: 2014
Страна: Индия
Жанр: драма
Продолжительность: 02:13:04
Перевод: Любительское (одноголосое) [PashaUp]
перевод на русский язык [Soniya]
--Режиссер: Имтиаз Али--В ролях: Алиа Бхатт, Рандип Худа, Дургеш Кумар, Прадип Нагар, Сахарш Кумар Шукла, Хемант Махаур, Арджун Малхотра
 --Описание: Жизнерадостная молодая девушка со своим женихом едут по ночному шоссе. Внезапно ее жизнь делает крутой поворот от парчи и свадебных украшений к суровой жестокости похищения. Она становится добычей группы деревенских преступников. Ее жизнь больше никогда не станет такой, как прежде. Банда находится в состоянии паники. Девушка является дочерью крупного промышленника. Его связи в коридорах власти делают выкуп нереальным. Они обречены. Но лидер этой группы непреклонен...--Качество: HDRip
Формат: AVI
Видео кодек: XviD
Аудио кодек: AC3
Видео: 672x288, 1 174 Kbps, 23.976 fps
Аудио: AC3, 448 Kbps, (6 ch)--

MI

Format                         : AVI
Format/Info                    : Audio Video Interleave
File size                      : 1.52 GiB
Duration                       : 2h 13mn
Overall bit rate               : 1 631 Kbps
Writing application            : VirtualDubMod 1.5.10.2 (build 2540/release)
Writing library                : VirtualDubMod build 2540/release
Video
ID                             : 0
Format                         : MPEG-4 Visual
Format profile                 : Advanced [email protected]
Format settings, BVOP          : 2
Format settings, QPel          : Yes
Format settings, GMC           : No warppoints
Format settings, Matrix        : Default (H.263)
Codec ID                       : XVID
Codec ID/Hint                  : XviD
Duration                       : 2h 13mn
Bit rate                       : 1 174 Kbps
Width                          : 672 pixels
Height                         : 288 pixels
Display aspect ratio           : 2.35:1
Frame rate                     : 23.976 fps
Color space                    : YUV
Chroma subsampling             : 4:2:0
Bit depth                      : 8 bits
Scan type                      : Progressive
Compression mode               : Lossy
Bits/(Pixel*Frame)             : 0.253
Stream size                    : 1.09 GiB (72%)
Writing library                : XviD 1.2.1 (UTC 2008-12-04)
Audio
ID                             : 1
Format                         : AC-3
Format/Info                    : Audio Coding 3
Mode extension                 : CM (complete main)
Format settings, Endianness    : Big
Codec ID                       : 2000
Duration                       : 2h 13mn
Bit rate mode                  : Constant
Bit rate                       : 448 Kbps
Channel(s)                     : 6 channels
Channel positions              : Front: L C R, Side: L R, LFE
Sampling rate                  : 48.0 KHz
Bit depth                      : 16 bits
Compression mode               : Lossy
Stream size                    : 426 MiB (27%)
Alignment                      : Split accross interleaves
Interleave, duration           : 42 ms (1.00 video frame)
Interleave, preload duration   : 500 ms

Скриншоты

Создавать темы 10-Июн-2014 22:52

[Профиль]  [ЛС] 

FRIEND

Стаж: 6 лет 10 месяцев

Сообщений: 120

Симпатии: 7

ВАУУУ! Индийские фильмы последных лет собирают больше рейтинга в Кинопоиске.

Создавать темы 11-Июн-2014 19:37

[Профиль]  [ЛС] 

Adesh

Стаж: 5 лет 6 месяцев

Сообщений: 41

Симпатии: 1

дайте скорости

Создавать темы 16-Июн-2014 08:07

[Профиль]  [ЛС] 
Показать сообщения:    
Ответить на тему

Текущее время: 15-Дек 02:04

Часовой пояс: UTC + 5



Вы не можете начинать темы
Вы не можете отвечать на сообщения
Вы не можете редактировать свои сообщения
Вы не можете удалять свои сообщения
Вы не можете голосовать в опросах
Вы не можете прикреплять файлы к сообщениям
Вы не можете скачивать файлы