КВН-2014 (06). Высшая лига. Вторая 1/4 финала [2014, Тв-шоу, юмор, HDTVRip-AVC]

Ответить на тему
 

refantom ®

Стаж: 5 лет 6 месяцев

Сообщений: 195

Симпатии: 86

КВН-2014. Высшая лига. Вторая 1/4 финала
Год выпуска: 2014
Страна: Россия
Жанр: Тв-шоу, юмор
Продолжительность:01:44:50
Перевод: Не требуется
Русские субтитры: нет
Дата игры: 14.04.2014
Дата эфира: 01.06.2014
Команды: С.У.Р.А. (Пенза), Сборная Дагестана (Махачкала), КемБридж (Кемерово), Плохая компания (сборная Красноярского края), Детективное агентство “Лунный свет” (Белгород)
Ура! Вот и дождались мы с вами продолжения показов четвертьфинальных игр, прошедших уже ни много ни мало полтора месяца назад. Сегодня череда второго четвертьфинала. Наступило лето. и так совпало, что тема сегодняшней игры "Водное путешествие". Игру трудно будет назвать выдающейся, и на фоне продолжительного перерыва она выглядит вполне достойно.
Тема сезона: Перезагрузка
Тема игры: Водное путешествие
Жюри: Михаил Галустян, Валдис Пельш, Дмитрий Нагиев, Николай Фоменко, Никита Ефремов, Юлий Гусман, Константин Эрнст
Приветствие Полный вперёд
Сборная Дагестана
- Жан-Клод Ван Дамм на границе Дагестана и Чечни
- в клубе анонимных кавказцев
- где-то на пустыре
- детский тренажёрный зал
- на митинге о нетрадиционной танцевальной ориентации
- о возвращении в торговый центр
Детективное агентство “Лунный свет”
- крайне пьяный человек
- отделение полиции на KaZantip`е
- первые кинохвалители
С.У.Р.А.
- мать на родительском собрании узнала всю правду о сыне
- у Дмитрия Нагиева на "Голосе" не осталось успокоительных речей
- молодожёны взяли ответное слово на свадьбе
- простые вопросы на передаче "Кто хочет стать миллионером?"
КемБридж
- настоящий состав жюри
- Михаил Ефремов собирает Никиту в жюри
- тёщу в Тайланде укусила змея
- трезвая и пьяная личность одного человека встретились
Плохая компания
- отчества членов жюри
- сотрудники полиции просыпали в машине вещественные доказательства
- парни возле лифта в торговом центре на кавказе
- в турагентстве после введения санкций
- разговор чиновника и личного водителя в московской пробке
Биатлон Морские узлы
Игра на вылет за целый балл. Но нервов и бессонных ночей на этот конкурс у команд уходит больше, чем на балл.
Капитанский конкурс Капитанский дневник
Сборная Дагестана
- дневник путешествия с АВМ
Детективное агентство “Лунный свет”
- записки из бутылок
С.У.Р.А.
- достижения знаменитых предков
КемБридж
- рассказ дочке о своей работе
Плохая компания
- презентация Первого Плохого телеканала
Музыкальный сюжет За тех, кто в море
Детективное агентство “Лунный свет”
- Филипп решил повеситься после разрыва четырёхдневных отношений
С.У.Р.А.
- отец остался дома с сыном один
Сборная Дагестана и Аркадий Укупник
- Весёлый Хасик в морском путешествии
Плохая компания
- эстрадный композитор и поэт презентует новую песню заказчику
КемБридж
- свадьба в обратной перемотке
Доп. информация: основано на релизе zhenya_hacker
качество: HDTVRip-AVC
формат: MKV
видеокодек: H.264
аудиокодек: mp2
Видео: h264 720x408 25 fps 1465 kpps
Аудио: Russian (mp2, 48.0 KHz, 2 ch 192 kbps)
MediaInfo
General
Unique ID : 178867009393165149568369770321419377747 (0x8690886F1AE680DBBD006ECF16AF1C53)
Complete name : H:\трекер\KVN.2014.(06).2.1-4.HDTVRip-AVC.mkv
Format : Matroska
Format version : Version 4 / Version 2
File size : 1.21 GiB
Duration : 1h 44mn
Overall bit rate : 1 658 Kbps
Encoded date : UTC 2014-06-02 04:49:58
Writing application : mkvmerge v6.9.1 ('Blue Panther') 64bit built on Apr 18 2014 18:23:38
Writing library : libebml v1.3.0 + libmatroska v1.4.1
Attachment : Yes
Video
ID : 1
Format : AVC
Format/Info : Advanced Video Codec
Format profile : [email protected]
Format settings, CABAC : Yes
Format settings, ReFrames : 9 frames
Codec ID : V_MPEG4/ISO/AVC
Duration : 1h 44mn
Bit rate : 1 465 Kbps
Width : 720 pixels
Height : 408 pixels
Display aspect ratio : 16:9
Frame rate mode : Constant
Frame rate : 25.000 fps
Color space : YUV
Chroma subsampling : 4:2:0
Bit depth : 8 bits
Scan type : Progressive
Bits/(Pixel*Frame) : 0.199
Stream size : 1.05 GiB (86%)
Writing library : x264 core 142 r2431 ac76440
Encoding settings : cabac=1 / ref=9 / deblock=1:-1:-1 / analyse=0x3:0x133 / me=umh / subme=11 / psy=1 / psy_rd=1.05:0.00 / mixed_ref=1 / me_range=32 / chroma_me=1 / trellis=2 / 8x8dct=1 / cqm=0 / deadzone=21,11 / fast_pskip=0 / chroma_qp_offset=-2 / threads=6 / lookahead_threads=1 / sliced_threads=0 / nr=0 / decimate=0 / interlaced=0 / bluray_compat=0 / constrained_intra=0 / bframes=8 / b_pyramid=2 / b_adapt=2 / b_bias=0 / direct=3 / weightb=1 / open_gop=0 / weightp=2 / keyint=250 / keyint_min=25 / scenecut=40 / intra_refresh=0 / rc=2pass / mbtree=0 / bitrate=1465 / ratetol=1.0 / qcomp=0.65 / qpmin=0 / qpmax=69 / qpstep=4 / cplxblur=20.0 / qblur=0.5 / ip_ratio=1.40 / pb_ratio=1.30 / aq=1:1.00
Language : Russian
Default : Yes
Forced : No
Audio
ID : 2
Format : MPEG Audio
Format version : Version 1
Format profile : Layer 2
Codec ID : A_MPEG/L2
Codec ID/Hint : MP2
Duration : 1h 44mn
Bit rate mode : Constant
Bit rate : 192 Kbps
Channel(s) : 2 channels
Sampling rate : 48.0 KHz
Compression mode : Lossy
Stream size : 144 MiB (12%)
Language : Russian
Default : Yes
Forced : No

Скриншоты


_________________
Подпись отключена за нарушение правил форума

Создавать темы 12-Июн-2014 10:44

[Профиль]  [ЛС] 

Heroes

Стаж: 5 лет 5 месяцев

Сообщений: 148

Симпатии: 3

поддайте газку ..

Создавать темы 05-Авг-2014 00:32

[Профиль]  [ЛС] 
Показать сообщения:    
Ответить на тему

Текущее время: 19-Авг 23:50

Часовой пояс: UTC + 5



Вы не можете начинать темы
Вы не можете отвечать на сообщения
Вы не можете редактировать свои сообщения
Вы не можете удалять свои сообщения
Вы не можете голосовать в опросах
Вы не можете прикреплять файлы к сообщениям
Вы не можете скачивать файлы