Медсестра в 3Д / Nurse 3-D (Дуглас Арниокоски) [2013 г., Триллер, Ужасы. BDRip] Вертикальная анаморфная Стереопара

Ответить на тему
 

farhod.ihz ®

Стаж: 6 лет 4 месяца

Сообщений: 56

Симпатии: 7

Медсестра в 3Д / Nurse 3-D Год выпуска: 2013
Страна: США (Lionsgate)
Жанр: Триллер, Ужасы
Продолжительность: 01:23:54
Перевод: Профессиональный (многоголосый, закадровый) BaibaKo-Режиссёр: Дуглас Арниокоски / Douglas Aarniokoski
В ролях: Пас де ла Уэрта, Катрина Боуден, Корбин Блю, Джадд Нельсон, Борис Коджо, Адам Хершман, Найси Нэш, Кэтлин Тёрнер, Майкл Эклунд, Мелани Скорфано-Описание: Днём Эбби Рассел является примерной медсестрой, которой люди доверяют свою жизнь. А ночью она использует собственную сексуальность, соблазняя и обманывая людей, чтобы затем убить их с особой жестокостью… Младшая медсестра начинает подозревать Эбби в преступлениях и пытается вывести негодяйку на чистую воду.-Качество: BDRip
Формат 3D: Half OverUnder / Вертикальная анаморфная стереопара
Формат: MKV
Видео кодек: AVC
Аудио кодек: AC3
Видео: MPEG4 Video(H264). 1920x1080. 23.976fps. 12.9 Mbps
Аудио #1: AC3, 48.0 KHz, 6 ch, 384kbps [BaibaKo]Russian
Аудио #2: AC3, 48.0 KHz, 6 ch, 640 kbps[original]English

Медиа инфо

General
Unique ID : 194966074085711486919046362782244889867 (0x92AD199B0CDDCD86A1830F0CA93D650B)
Complete name : J:\kino\Nurse_(CROP)_Rip by Dag13.mkv
Format : Matroska
Format version : Version 2
File size : 8.35 GiB
Duration : 1h 23mn
Overall bit rate : 14.2 Mbps
Movie name : Release Group CINEMANIA
Encoded date : UTC 2014-03-29 09:39:45
Writing application : mkvmerge v3.4.0 ('Rapunzel') сборка от May 15 2010 09:38:20
Writing library : libebml v0.8.0 + libmatroska v0.9.0
Video
ID : 1
Format : AVC
Format/Info : Advanced Video Codec
Format profile : [email protected]
Format settings, CABAC : Yes
Format settings, ReFrames : 4 frames
Codec ID : V_MPEG4/ISO/AVC
Duration : 1h 23mn
Bit rate : 12.9 Mbps
Width : 1 920 pixels
Height : 1 080 pixels
Display aspect ratio : 16:9
Frame rate mode : Constant
Frame rate : 23.976 fps
Color space : YUV
Chroma subsampling : 4:2:0
Bit depth : 8 bits
Scan type : Progressive
Bits/(Pixel*Frame) : 0.260
Stream size : 7.58 GiB (91%)
Title : Rip by Dag13
Writing library : x264 core 116 r2074 2641b9e
Encoding settings : cabac=1 / ref=4 / deblock=1:-3:-3 / analyse=0x3:0x113 / me=umh / subme=9 / psy=1 / psy_rd=1.00:0.00 / mixed_ref=1 / me_range=16 / chroma_me=1 / trellis=2 / 8x8dct=1 / cqm=0 / deadzone=21,11 / fast_pskip=1 / chroma_qp_offset=-2 / threads=9 / sliced_threads=0 / nr=0 / decimate=1 / interlaced=0 / bluray_compat=0 / constrained_intra=0 / bframes=6 / b_pyramid=2 / b_adapt=2 / b_bias=0 / direct=3 / weightb=1 / open_gop=0 / weightp=2 / keyint=250 / keyint_min=23 / scenecut=40 / intra_refresh=0 / rc_lookahead=60 / rc=crf / mbtree=1 / crf=18.0 / qcomp=0.60 / qpmin=1 / qpmax=69 / qpstep=4 / ip_ratio=1.40 / aq=1:1.00
Language : English
Default : No
Forced : No
Audio #1
ID : 2
Format : AC-3
Format/Info : Audio Coding 3
Mode extension : CM (complete main)
Format settings, Endianness : Big
Codec ID : A_AC3
Duration : 1h 23mn
Bit rate mode : Constant
Bit rate : 384 Kbps
Channel(s) : 6 channels
Channel positions : Front: L C R, Side: L R, LFE
Sampling rate : 48.0 KHz
Bit depth : 16 bits
Compression mode : Lossy
Stream size : 230 MiB (3%)
Title : BaibaKo
Language : Russian
Default : No
Forced : Yes
Audio #2
ID : 3
Format : AC-3
Format/Info : Audio Coding 3
Mode extension : CM (complete main)
Format settings, Endianness : Big
Codec ID : A_AC3
Duration : 1h 23mn
Bit rate mode : Constant
Bit rate : 640 Kbps
Channel(s) : 6 channels
Channel positions : Front: L C R, Side: L R, LFE
Sampling rate : 48.0 KHz
Bit depth : 16 bits
Compression mode : Lossy
Stream size : 384 MiB (4%)
Language : English
Default : Yes
Forced : No

Скриншоты

Создавать темы 12-Июн-2014 16:04

[Профиль]  [ЛС] 

ALEXSIS

Стаж: 3 года 10 месяцев

Сообщений: 10

Спасибо за релиз!
Страшновато будет смотреть его в 3Д

Создавать темы 13-Июн-2014 09:38

[Профиль]  [ЛС] 

morozko

Стаж: 6 лет 8 месяцев

Сообщений: 83

Симпатии: 17

так себе фильм.думаю,его 3д не изменит к лучшему

Создавать темы 14-Июн-2014 01:31

[Профиль]  [ЛС] 

лочин

Стаж: 5 лет 8 месяцев

Сообщений: 1

берите

Создавать темы 14-Июл-2014 19:19

[Профиль]  [ЛС] 

desperate2

Стаж: 5 лет 4 месяца

Сообщений: 9

Почему показывает в 2 экрана???

Создавать темы 15-Июл-2014 19:50

[Профиль]  [ЛС] 

Vlad7667

Стаж: 4 года 11 месяцев

Сообщений: 196

Симпатии: 187

854448Почему показывает в 2 экрана???
Да потому что это 3D фильм))).

Создавать темы 16-Июл-2014 11:38

[Профиль]  [ЛС] 

4niko

Стаж: 6 лет 10 месяцев

Сообщений: 78

Симпатии: 11

Купите 3D телек и почитайте к нему инструкцию !! :)

Создавать темы 19-Июл-2014 22:04

[Профиль]  [ЛС] 

Ernest

Стаж: 6 лет 5 месяцев

Сообщений: 28

Симпатии: 1

Народ дайте скорость плз. Хочу с женой посмотреть на выходных.

Создавать темы 01-Авг-2014 15:38

[Профиль]  [ЛС] 
Показать сообщения:    
Ответить на тему

Текущее время: 22-Сен 13:05

Часовой пояс: UTC + 5



Вы не можете начинать темы
Вы не можете отвечать на сообщения
Вы не можете редактировать свои сообщения
Вы не можете удалять свои сообщения
Вы не можете голосовать в опросах
Вы не можете прикреплять файлы к сообщениям
Вы не можете скачивать файлы