Наруто Ураганные хроники 365 / Naruto Shippuuden 365 (Датэ Хаято) [2014 г., Приключения, комедия, боевые искусства, сёнэн, HDTVRip]

Ответить на тему
 

sharof1 ®

Стаж: 4 года 3 месяца

Сообщений: 26

Наруто Ураганные хроники 365 / Naruto Shippuuden 365
Год выпуска: 2014
Страна: Япония
Жанр: Приключения, комедия, боевые искусства, сёнэн
Продолжительность: 00:24:01
Перевод: Любительский (одноголосый) [OVERLORDS]
Режиссер: Датэ Хаято
В ролях: Акэути Дзюнко, Накамура Тиэ, Иноэ Кадзухико, Оцука Хотю, Кацуки Масако, Нэмото Кэйко, Морикубо Сётаро, Сэки Тосихико, Тобита Нобуо, Цубой Томохиро, Отани Икуэ, Паку Роми, Мидзуки Нана
Описание: В мире Наруто незаметно пролетели два года. Бывшие новички пополнили ряды опытных синоби в ранге тюнин и дзёнин. Главные герои не сидели на месте – каждый стал учеником одного из легендарных Саннин – трех великих ниндзя Конохи. Парень в оранжевом продолжил обучение у мудрого, но эксцентричного Дзирайи, постепенно восходя на новую ступень боевого мастерства. Сакура выдвинулась в помощницы и доверенные лица целительницы Цунадэ – нового вождя Деревни Листвы. Ну а Саскэ, чья гордыня привела к изгнанию из Конохи, вступил во временный союз со зловещим Оротимару, причем каждый считает, что лишь использует другого до поры до времени.
Качество: HDTVRip
Формат: MPEG
Видео кодек: XviD
Аудио кодек: AAC
Видео: MPEG4, Video (H264), 1280x720, 25fps, 1768kbps, 8bit
Аудио: AAC, 44100Hz, stereo, 106 kbps

MediaInfo

ID : 1
Video
Format : AVC
Format/Info : Advanced Video Codec
Format profile : [email protected]
Format settings, CABAC : Yes
Format settings, ReFrames : 4 frames
Codec ID : avc1
Codec ID/Info : Advanced Video Coding
Duration : 24mn 0s
Bit rate : 1 800 Kbps
Width : 1 280 pixels
Height : 720 pixels
Display aspect ratio : 16:9
Frame rate mode : Constant
Frame rate : 25.000 fps
Color space : YUV
Chroma subsampling : 4:2:0
Bit depth : 8 bits
Scan type : Progressive
Bits/(Pixel*Frame) : 0.078
Stream size : 304 MiB (94%)
Writing library : x264 core 129
Audio
ID : 2
Format : AAC
Format/Info : Advanced Audio Codec
Format profile : LC
Codec ID : 40
Duration : 24mn 1s
Duration_LastFrame : -22ms
Bit rate mode : Variable
Bit rate : 106 Kbps
Maximum bit rate : 128 Kbps
Channel count : 2 channels
Channel positions : Front: L R
Sampling rate : 44.1 KHz
Compression mode : Lossy
Delay relative to video : 80ms
Stream size : 18.2 MiB (6%)

Скриншоты






Последний раз редактировалось: sharof1 (2014-06-12 20:56), всего редактировалось 3 раз(а)

Создавать темы 12-Июн-2014 19:51

[Профиль]  [ЛС] 

azik-1993

Стаж: 4 года 6 месяцев

Сообщений: 155

Симпатии: 23

sharof1, У вас MI не полностью да и ошибка в оформлении. Аудио кодек: MP3 , а тут Аудио: AAC 44100Hz stereo 105kbps [Audio]

Создавать темы 12-Июн-2014 20:24

[Профиль]  [ЛС] 

Mrblack

Стаж: 6 лет 3 месяца

Сообщений: 247

Симпатии: 52

Самая худшая озвучка. Мне вообше ненравитса

Информация от Азиз87


Уважаемый не забываем о действии правила 3.2. Предупреждение.

Создавать темы 13-Июн-2014 00:01

[Профиль]  [ЛС] 

shelf

Стаж: 3 года 7 месяцев

Сообщений: 4

Спасибо за серию, добавили бы скорости было бы здорово.

Информация от Азиз87


3.17. Писать translitom, ВСЕМИ ЗАГЛАВНЫМИ или КоМБиНацИей строчных и ЗАГЛАВНЫХ букв. Отредактировано.

Создавать темы 14-Июн-2014 11:44

[Профиль]  [ЛС] 
Показать сообщения:    
Ответить на тему

Текущее время: 22-Авг 23:51

Часовой пояс: UTC + 5



Вы не можете начинать темы
Вы не можете отвечать на сообщения
Вы не можете редактировать свои сообщения
Вы не можете удалять свои сообщения
Вы не можете голосовать в опросах
Вы не можете прикреплять файлы к сообщениям
Вы не можете скачивать файлы