Темное прикосновение (Поцелуй мамочку на ночь) / Dark touch (Марина де Ван) [2013 г., Ужасы, триллер, WEB-DLRip]

Ответить на тему
 

alisher.1989 ®

Стаж: 5 лет 6 месяцев

Сообщений: 92

Симпатии: 6

Темное прикосновение (Поцелуй мамочку на ночь) / Dark touch Темное прикосновение (Поцелуй мамочку на ночь) / Dark touch
Год выпуска: 2013
Страна: Франция, Ирландия, Швеция
Жанр: Ужасы, триллер
Продолжительность: 01:31:27
Перевод: Профессиональный (многоголосый, закадровый)
Режиссер: Марина де Ван
В ролях: Мари Мисси Китинг, Марселла Планкетт, Падрейк Делани, Клер Баррет, Роберт Доннелли, Ричард Дормер, Шарлотта Фливхолм, Элла Хэйес, Марк Хубермэн, Кэти Кирби.
Описание: Однажды вечером в доме на окраине начинают происходить невероятно ужасные и таинственные вещи, в ходе чего погибают его обитатели, родители и младший брат 11-летней девочки Ниам. Полиция считает, что это дело рук убийц-вандалов, и не придаёт значения словам Ниам, когда та рассказывает о беспощадной ярости дома. Девочку забирают к себе друзья её родителей, которые, окружив Ниам любовью и вниманием, стараются облегчить её боль. Но Ниам не оставляют в покое. Она постоянно замечает признаки подкрадывающейся опасности, окружающие её предметы пропитаны жестокой яростью, которая вскоре вновь прорывается и начинает жестокую расправу, в поисках всё новых жертв.
Качество: WEB-DLRip
Формат: AVI
Видео кодек: XviD
Видео: XviD,1513 Kb/s, 720x304
Аудио: Dolby AC3 48000Hz 6ch 384kbps

Скриншоты




Доп. информация:

Format : AVI
Format/Info : Audio Video Interleave
File size : 1.47 GiB
Duration : 1h 31mn
Overall bit rate : 2 296 Kbps
Movie name : Dark.Touch.2013.WEB-DLRip
Director : ELEKTRI4KA
Writing application : VirtualDubMod 1.5.10.2 (build 2540/release)
Original source form/Name : Movie
Copyright : uniongang.tv
Video
ID : 0
Format : MPEG-4 Visual
Format profile : Advanced [email protected]
Format settings, BVOP : 2
Format settings, QPel : No
Format settings, GMC : No warppoints
Format settings, Matrix : Custom
Codec ID : XVID
Codec ID/Hint : XviD
Duration : 1h 31mn
Bit rate : 1 514 Kbps
Width : 720 pixels
Height : 304 pixels
Display aspect ratio : 2.35:1
Frame rate : 24.000 fps
Color space : YUV
Chroma subsampling : 4:2:0
Bit depth : 8 bits
Scan type : Progressive
Compression mode : Lossy
Bits/(Pixel*Frame) : 0.288
Stream size : 991 MiB (66%)
Writing library : XviD 1.2.1 (UTC 2008-12-04)
Audio #1
ID : 1
Format : AC-3
Format/Info : Audio Coding 3
Mode extension : CM (complete main)
Format settings, Endianness : Big
Codec ID : 2000
Duration : 1h 31mn
Bit rate mode : Constant
Bit rate : 384 Kbps
Channel(s) : 6 channels
Channel positions : Front: L C R, Side: L R, LFE
Sampling rate : 48.0 KHz
Bit depth : 16 bits
Compression mode : Lossy
Stream size : 251 MiB (17%)
Alignment : Split accross interleaves
Interleave, duration : 42 ms (1.00 video frame)
Interleave, preload duration : 500 ms
Audio #2
ID : 2
Format : AC-3
Format/Info : Audio Coding 3
Mode extension : CM (complete main)
Format settings, Endianness : Big
Codec ID : 2000
Duration : 1h 31mn
Bit rate mode : Constant
Bit rate : 384 Kbps
Channel(s) : 6 channels
Channel positions : Front: L C R, Side: L R, LFE
Sampling rate : 48.0 KHz
Bit depth : 16 bits
Compression mode : Lossy
Stream size : 251 MiB (17%)
Alignment : Split accross interleaves
Interleave, duration : 42 ms (1.00 video frame)
Interleave, preload duration : 500 msFormat : AVI
Format/Info : Audio Video Interleave
File size : 1.47 GiB
Duration : 1h 31mn
Overall bit rate : 2 296 Kbps
Movie name : Dark.Touch.2013.WEB-DLRip
Director : ELEKTRI4KA
Writing application : VirtualDubMod 1.5.10.2 (build 2540/release)
Original source form/Name : Movie
Copyright : uniongang.tv
Video
ID : 0
Format : MPEG-4 Visual
Format profile : Advanced [email protected]
Format settings, BVOP : 2
Format settings, QPel : No
Format settings, GMC : No warppoints
Format settings, Matrix : Custom
Codec ID : XVID
Codec ID/Hint : XviD
Duration : 1h 31mn
Bit rate : 1 514 Kbps
Width : 720 pixels
Height : 304 pixels
Display aspect ratio : 2.35:1
Frame rate : 24.000 fps
Color space : YUV
Chroma subsampling : 4:2:0
Bit depth : 8 bits
Scan type : Progressive
Compression mode : Lossy
Bits/(Pixel*Frame) : 0.288
Stream size : 991 MiB (66%)
Writing library : XviD 1.2.1 (UTC 2008-12-04)
Audio #1
ID : 1
Format : AC-3
Format/Info : Audio Coding 3
Mode extension : CM (complete main)
Format settings, Endianness : Big
Codec ID : 2000
Duration : 1h 31mn
Bit rate mode : Constant
Bit rate : 384 Kbps
Channel(s) : 6 channels
Channel positions : Front: L C R, Side: L R, LFE
Sampling rate : 48.0 KHz
Bit depth : 16 bits
Compression mode : Lossy
Stream size : 251 MiB (17%)
Alignment : Split accross interleaves
Interleave, duration : 42 ms (1.00 video frame)
Interleave, preload duration : 500 ms
Audio #2
ID : 2
Format : AC-3
Format/Info : Audio Coding 3
Mode extension : CM (complete main)
Format settings, Endianness : Big
Codec ID : 2000
Duration : 1h 31mn
Bit rate mode : Constant
Bit rate : 384 Kbps
Channel(s) : 6 channels
Channel positions : Front: L C R, Side: L R, LFE
Sampling rate : 48.0 KHz
Bit depth : 16 bits
Compression mode : Lossy
Stream size : 251 MiB (17%)
Alignment : Split accross interleaves
Interleave, duration : 42 ms (1.00 video frame)
Interleave, preload duration : 500 ms

Создавать темы 15-Июн-2014 13:16

[Профиль]  [ЛС] 

farid0888

Стаж: 5 лет 4 месяца

Сообщений: 232

Симпатии: 49

alisher.1989, помогу, тоже скачал где то.

Создавать темы 15-Июн-2014 19:24

[Профиль]  [ЛС] 

Heroes

Стаж: 5 лет 6 месяцев

Сообщений: 148

Симпатии: 3

Фильм ниочем и туповат...

Создавать темы 18-Июн-2014 02:27

[Профиль]  [ЛС] 
Показать сообщения:    
Ответить на тему

Текущее время: 22-Сен 11:26

Часовой пояс: UTC + 5



Вы не можете начинать темы
Вы не можете отвечать на сообщения
Вы не можете редактировать свои сообщения
Вы не можете удалять свои сообщения
Вы не можете голосовать в опросах
Вы не можете прикреплять файлы к сообщениям
Вы не можете скачивать файлы