Узел дьявола / Devil's Knot (Атом Эгоян) [2013 г., драма, триллер, криминал, HDRip]

Ответить на тему
 

Каротажник ®

Стаж: 4 года

Сообщений: 195

Симпатии: 211

Узел дьявола /Devil's Knot

Год выпуска: 2013
Страна: США
Жанр: драма, триллер, криминал

Продолжительность: 01:54:14
Перевод: Любительский (одноголосый)

Режиссёр: Атом Эгоян
В ролях: Колин Фёрт, Риз Уизерспун, Дэйн ДеХаан, Мирей Инос, Брюс Гринвуд, Элиас Котеас, Стивен Мойер, Алессандро Нивола, Эми Райан, Кевин Дюран

Небольшой американский городок потрясен зверским убийством трех детей. Трех подростков обвиняют в этом злодеянии, всего лишь на том основании, что они носят длинные волосы, черную одежду и слушают «сатанинскую» музыку. Только один человек в городе встает на их защиту – адвокат Рон Лакс. Он всеми силами борется против предубеждений и пытается спасти три невинные жизни.




Качество: HDRip
Формат: Avi

Видео: Xvid 720x400 23.976fps 1319kbps
Аудио: AC3 48000Hz 6ch 384kbps

Media Info

Format : AVI
Format/Info : Audio Video Interleave
File size : 1.37 GiB
Duration : 1h 54mn
Overall bit rate : 1 713 Kbps
Writing application : VirtualDubMod 1.5.10.2 (build 2540/release)
Writing library : VirtualDubMod build 2540/release
Video
ID : 0
Format : MPEG-4 Visual
Format profile : Advanced [email protected]
Format settings, BVOP : 2
Format settings, QPel : No
Format settings, GMC : No warppoints
Format settings, Matrix : Default (H.263)
Codec ID : XVID
Codec ID/Hint : XviD
Duration : 1h 54mn
Bit rate : 1 320 Kbps
Width : 720 pixels
Height : 400 pixels
Display aspect ratio : 16:9
Frame rate : 23.976 fps
Color space : YUV
Chroma subsampling : 4:2:0
Bit depth : 8 bits
Scan type : Progressive
Compression mode : Lossy
Bits/(Pixel*Frame) : 0.191
Stream size : 1.05 GiB (77%)
Writing library : XviD 1.2.1 (UTC 2008-12-04)
Audio
ID : 1
Format : AC-3
Format/Info : Audio Coding 3
Mode extension : CM (complete main)
Format settings, Endianness : Big
Codec ID : 2000
Duration : 1h 54mn
Bit rate mode : Constant
Bit rate : 384 Kbps
Channel(s) : 6 channels
Channel positions : Front: L C R, Side: L R, LFE
Sampling rate : 48.0 KHz
Bit depth : 16 bits
Compression mode : Lossy
Stream size : 314 MiB (22%)
Alignment : Split accross interleaves
Interleave, duration : 42 ms (1.00 video frame)
Interleave, preload duration : 500 ms

Скриншоты


Создавать темы 15-Июн-2014 19:27

[Профиль]  [ЛС] 
Показать сообщения:    
Ответить на тему

Текущее время: 21-Окт 00:58

Часовой пояс: UTC + 5



Вы не можете начинать темы
Вы не можете отвечать на сообщения
Вы не можете редактировать свои сообщения
Вы не можете удалять свои сообщения
Вы не можете голосовать в опросах
Вы не можете прикреплять файлы к сообщениям
Вы не можете скачивать файлы