Ип Ман / Yip Man / Ip Man / Yip Man / СЕРИИ 1-50 из 50 [2013 г., исторический, боевые искусства, драма, (Фан Сяо Тянь) DVDRip] Виктор Береговых

Страницы :  1, 2, 3  След.

Ответить на тему
 

Zab ®

Стаж: 6 лет 5 месяцев

Сообщений: 476

Симпатии: 424

Ip Man / Yip Man
-Год выпуска: 2013
Страна: Китай
Жанр: исторический, боевые искусства, драма
Продолжительность: 50 серий по 42 минуты
Перевод: Любительское (одноголосное) (Виктор Береговых)-Режиссер: Фан Сяо Тянь
В ролях: Кевин Чен, Сесилия Хань, Юэнь Ва, Лён Ка Ян, Юй Жон Гуан, Крисси Чан, Брюс Лён, Сун Ян, Лю Сяо Фен-Описание: Сериал, посвященный Ип Ману, мастеру китайских боевых искусств, представителю стиля Вин Чунь.
В 1950-х—1960-х годах XX века в Гонконге Ип Ман первым начал открытое преподавание кун-фу Вин Чунь, которое до той поры оставалось клановым. В Европе и Америке известен также как учитель киноактёра Брюса Ли, познакомившего Западный мир с китайскими боевыми искусствами.
-Сэмпл-Качество: DVDRip
Формат: AVI
Видео кодек: XviD
Аудио кодек: AC3
Видео: XviD, 720x416 (16:9), 25.000 fps, 1608 kbps avg, 0.215 bit/pixel
Аудио: AC3, 48.0 KHz, 192 Kbps, 2 channels (русский)
-

MI

General
Complete name : D:\[Movies]\Ип Ман_Yip Man_Ip Man\1 seriya.avi
Format : AVI
Format/Info : Audio Video Interleave
File size : 550 MiB
Duration : 42mn 41s
Overall bit rate : 1 802 Kbps
Writing application : VirtualDubMod 1.5.4.1 (build 2178/release)
Writing library : VirtualDubMod build 2178/release
Video
ID : 0
Format : MPEG-4 Visual
Format profile : Simple@L3
Format settings, BVOP : 1
Format settings, QPel : No
Format settings, GMC : No warppoints
Format settings, Matrix : Custom
Codec ID : XVID
Codec ID/Hint : XviD
Duration : 42mn 41s
Bit rate : 1 603 Kbps
Width : 720 pixels
Height : 416 pixels
Display aspect ratio : 1.731
Frame rate : 25.000 fps
Color space : YUV
Chroma subsampling : 4:2:0
Bit depth : 8 bits
Scan type : Progressive
Compression mode : Lossy
Bits/(Pixel*Frame) : 0.214
Stream size : 489 MiB (89%)
Writing library : XviD 1.0.1 (UTC 2004-06-05)
Audio
ID : 1
Format : AC-3
Format/Info : Audio Coding 3
Mode extension : CM (complete main)
Format settings, Endianness : Big
Codec ID : 2000
Duration : 42mn 41s
Bit rate mode : Constant
Bit rate : 192 Kbps
Channel(s) : 2 channels
Channel positions : Front: L R
Sampling rate : 48.0 KHz
Bit depth : 16 bits
Compression mode : Lossy
Stream size : 58.6 MiB (11%)
Alignment : Split accross interleaves
Interleave, duration : 96 ms (2.40 video frames)
Interleave, preload duration : 96 ms
Language : Russian

Скриншоты







Последний раз редактировалось: Zab (2015-03-05 16:00), всего редактировалось 22 раз(а)

Создавать темы 16-Июн-2014 08:13

[Профиль]  [ЛС] 

Zab ®

Стаж: 6 лет 5 месяцев

Сообщений: 476

Симпатии: 424

:cd: Добавлена 3 и 4 серия!! :cc:


Последний раз редактировалось: Zab (2014-10-17 11:05), всего редактировалось 2 раз(а)

Создавать темы 19-Июн-2014 06:27

[Профиль]  [ЛС] 

Alex2006

Стаж: 6 лет 7 месяцев

Сообщений: 3

другие серии будут?

Создавать темы 06-Июл-2014 13:45

[Профиль]  [ЛС] 

Zab ®

Стаж: 6 лет 5 месяцев

Сообщений: 476

Симпатии: 424

851922другие серии будут?
Будут, Скоро...

Создавать темы 06-Июл-2014 19:05

[Профиль]  [ЛС] 

Zab ®

Стаж: 6 лет 5 месяцев

Сообщений: 476

Симпатии: 424

:cd: Добавлена 5 - серия!! :cc:


Последний раз редактировалось: Zab (2014-10-17 11:05), всего редактировалось 1 раз

Создавать темы 31-Июл-2014 10:55

[Профиль]  [ЛС] 

Zab ®

Стаж: 6 лет 5 месяцев

Сообщений: 476

Симпатии: 424

:cd: Добавлены серии с 6 по 30! :cc:


Последний раз редактировалось: Zab (2014-10-17 11:06), всего редактировалось 1 раз

Создавать темы 05-Авг-2014 09:49

[Профиль]  [ЛС] 

Neyron1978

Стаж: 7 лет 10 месяцев

Сообщений: 15

Симпатии: 1

Автор спасибо за релиз! Огромное!

Создавать темы 05-Авг-2014 16:34

[Профиль]  [ЛС] 

elyor.uz88

Стаж: 5 лет

Сообщений: 15

Симпатии: 1

Шикарный сериал! Рекомендую. Но сам пока просмотрел только первые пять серий. Спасибо за релиз.

Создавать темы 06-Авг-2014 07:31

[Профиль]  [ЛС] 

Zab ®

Стаж: 6 лет 5 месяцев

Сообщений: 476

Симпатии: 424

862296Автор спасибо за релиз! Огромное!
862296Шикарный сериал! Рекомендую. Но сам пока просмотрел только первые пять серий. Спасибо за релиз.
Всегда пожалуйста! aa
Приятного просмотра!

Создавать темы 06-Авг-2014 09:39

[Профиль]  [ЛС] 

elyor.uz88

Стаж: 5 лет

Сообщений: 15

Симпатии: 1

ждём пополнений!!!

Создавать темы 15-Авг-2014 10:29

[Профиль]  [ЛС] 

Zab ®

Стаж: 6 лет 5 месяцев

Сообщений: 476

Симпатии: 424

:cd: Добавлена 31 - серия!!:cc:
Приятного просмотра!


Последний раз редактировалось: Zab (2014-10-17 11:07), всего редактировалось 2 раз(а)

Создавать темы 16-Авг-2014 18:55

[Профиль]  [ЛС] 

elyor.uz88

Стаж: 5 лет

Сообщений: 15

Симпатии: 1

пора добавлять новые серии!!! заждались уже! mb

Создавать темы 26-Авг-2014 11:46

[Профиль]  [ЛС] 

Zab ®

Стаж: 6 лет 5 месяцев

Сообщений: 476

Симпатии: 424

:cd: Добавлена 32 и 33 - серия!! :cc:


Последний раз редактировалось: Zab (2014-10-17 11:08), всего редактировалось 2 раз(а)

Создавать темы 31-Авг-2014 06:51

[Профиль]  [ЛС] 

elyor.uz88

Стаж: 5 лет

Сообщений: 15

Симпатии: 1

наконец-то! спасибо большое!

Создавать темы 31-Авг-2014 08:06

[Профиль]  [ЛС] 

Zab ®

Стаж: 6 лет 5 месяцев

Сообщений: 476

Симпатии: 424

:cd: Добавлена 34 - серия!! :cc:


Последний раз редактировалось: Zab (2014-10-17 11:08), всего редактировалось 1 раз

Создавать темы 02-Сен-2014 22:35

[Профиль]  [ЛС] 
Показать сообщения:    
Ответить на тему

Текущее время: 24-Сен 02:52

Часовой пояс: UTC + 5



Вы не можете начинать темы
Вы не можете отвечать на сообщения
Вы не можете редактировать свои сообщения
Вы не можете удалять свои сообщения
Вы не можете голосовать в опросах
Вы не можете прикреплять файлы к сообщениям
Вы не можете скачивать файлы