(New Age, Tribal, Modern Classical) Azam Ali - Elysium for the Brave (Six Degrees Records) - 2006, FLAC (tracks)

Ответить на тему
 

Nukus ®

Стаж: 5 лет 10 месяцев

Сообщений: 74

Симпатии: 7

-Azam Ali - Elysium for the Brave (2006) (Six Degrees Records)-- Жанр: New Age, Tribal, Modern Classical--Год выпуска диска: 2006--Производитель диска: US--Аудио кодек: FLAC--Тип рипа: tracks--Битрейт аудио: 884--Продолжительность: 52:28.427--

Трэклист:

1. Endless Reverie (5:50)
2. Spring Arrives (5:19)
3. In Other Worlds (6:09)
4. Abode (6:01)
5. Forty One Ways (6:11)
6. The Tryst (6:06)
7. From Heaven To Dust (4:22)
8. I Am A Stranger In This World (7:26)
9. In This Divide (5:18)
Доп. информация:
Отчёт EAC
Exact Audio Copy V0.99 prebeta 1 from 25. May 2007
EAC extraction logfile from 26. July 2007, 20:10
Ali, Azam / Elysium for the Brave
Used drive : HP DVD Writer 740b Adapter: 0 ID: 0
Read mode : Secure
Utilize accurate stream : Yes
Defeat audio cache : Yes
Make use of C2 pointers : No
Read offset correction : 102
Overread into Lead-In and Lead-Out : No
Fill up missing offset samples with silence : Yes
Delete leading and trailing silent blocks : No
Used interface : Native Win32 interface for Win NT & 2000
Gap handling : Not detected, thus appended to previous track
Used output format : User Defined Encoder
Selected bitrate : 128 kBit/s
Quality : High
Add ID3 tag : No
Command line compressor : C:\Program Files\FLAC\FLAC.exe
Additional command line options : -V -8 -T "artist=%a" -T "title=%t" -T "album=%g" -T "date=%y" -T "tracknumber=%n" -T "genre=%m" %s
TOC of the extracted CD
Track | Start | Length | Start sector | End sector
---------------------------------------------------------
1 | 0:00.00 | 5:47.73 | 0 | 26097
2 | 5:47.73 | 5:17.52 | 26098 | 49924
3 | 11:05.50 | 6:07.25 | 49925 | 77474
4 | 17:13.00 | 5:59.13 | 77475 | 104412
5 | 23:12.13 | 6:09.49 | 104413 | 132136
6 | 29:21.62 | 6:04.22 | 132137 | 159458
7 | 35:26.09 | 4:19.73 | 159459 | 178956
8 | 39:46.07 | 7:24.06 | 178957 | 212262
9 | 47:10.13 | 5:18.19 | 212263 | 236131
Track 1
Filename C:\Documents and Settings\HP_Administrator\My Documents\Downloads\Azam Ali - Elysium for the Brave (FLAC)\01 - Endless Reverie.wav
Peak level 98.8 %
Track quality 100.0 %
Test CRC F34624C5
Copy CRC F34624C5
Accurately ripped (confidence 5) [DEE54378]
Copy OK
Track 2
Filename C:\Documents and Settings\HP_Administrator\My Documents\Downloads\Azam Ali - Elysium for the Brave (FLAC)\02 - Spring Arrives.wav
Peak level 98.8 %
Track quality 100.0 %
Test CRC B0A9CCEA
Copy CRC B0A9CCEA
Accurately ripped (confidence 6) [6018DE6E]
Copy OK
Track 3
Filename C:\Documents and Settings\HP_Administrator\My Documents\Downloads\Azam Ali - Elysium for the Brave (FLAC)\03 - In Other Worlds.wav
Peak level 98.8 %
Track quality 100.0 %
Test CRC 2CD16266
Copy CRC 2CD16266
Accurately ripped (confidence 6) [939E05D1]
Copy OK
Track 4
Filename C:\Documents and Settings\HP_Administrator\My Documents\Downloads\Azam Ali - Elysium for the Brave (FLAC)\04 - Abode.wav
Peak level 98.8 %
Track quality 100.0 %
Test CRC 646B8E0B
Copy CRC 646B8E0B
Accurately ripped (confidence 6) [6AFB9520]
Copy OK
Track 5
Filename C:\Documents and Settings\HP_Administrator\My Documents\Downloads\Azam Ali - Elysium for the Brave (FLAC)\05 - Forty One Ways.wav
Peak level 98.8 %
Track quality 100.0 %
Test CRC 6BFD00F6
Copy CRC 6BFD00F6
Accurately ripped (confidence 6) [11764559]
Copy OK
Track 6
Filename C:\Documents and Settings\HP_Administrator\My Documents\Downloads\Azam Ali - Elysium for the Brave (FLAC)\06 - The Tryst.wav
Peak level 98.8 %
Track quality 100.0 %
Test CRC 9C2168DE
Copy CRC 9C2168DE
Accurately ripped (confidence 5) [980FB53F]
Copy OK
Track 7
Filename C:\Documents and Settings\HP_Administrator\My Documents\Downloads\Azam Ali - Elysium for the Brave (FLAC)\07 - From Heaven to Dust.wav
Peak level 99.5 %
Track quality 99.9 %
Test CRC 86CFEF76
Copy CRC 86CFEF76
Accurately ripped (confidence 6) [E3E116A7]
Copy OK
Track 8
Filename C:\Documents and Settings\HP_Administrator\My Documents\Downloads\Azam Ali - Elysium for the Brave (FLAC)\08 - I Am a Stranger in This World.wav
Peak level 98.8 %
Track quality 100.0 %
Test CRC F13689C4
Copy CRC F13689C4
Accurately ripped (confidence 5) [0FCD12F9]
Copy OK
Track 9
Filename C:\Documents and Settings\HP_Administrator\My Documents\Downloads\Azam Ali - Elysium for the Brave (FLAC)\09 - In This Divide.wav
Peak level 98.8 %
Track quality 100.0 %
Test CRC 724CE5F8
Copy CRC 724CE5F8
Accurately ripped (confidence 5) [64D85E72]
Copy OK
No errors occurred
End of status report

Создавать темы 17-Июн-2014 15:01

[Профиль]  [ЛС] 
Показать сообщения:    
Ответить на тему

Текущее время: 12-Дек 21:00

Часовой пояс: UTC + 5



Вы не можете начинать темы
Вы не можете отвечать на сообщения
Вы не можете редактировать свои сообщения
Вы не можете удалять свои сообщения
Вы не можете голосовать в опросах
Вы не можете прикреплять файлы к сообщениям
Вы не можете скачивать файлы