Эван Всемогущий / Evan Almighty (Том Шадьяк / Tom Shadyac) [2007 г., Комедия, фэнтези, BDRip-AVC] Dub

Ответить на тему
 

razor2011 ®

Стаж: 5 лет 3 месяца

Сообщений: 227

Симпатии: 37

Эван Всемогущий / Evan Almighty«Дизайн от Бога. Воплощение... от него?!» Год выпуска: 2007
Страна: США
Жанр: Комедия, фэнтези
Продолжительность: 01:35:40
Перевод: Профессиональный дублированный
Субтитры: Нет-Режиссер: Том Шадьяк / Tom Shadyac-В ролях: Стив Карелл (Evan Baxter,), Морган Фриман (God), Лорен Грэм (Joan Baxter), Джонни Симмонс (Dylan Baxter), Грэхэм Филлипс (Jordan Baxter), Джимми Беннетт (Ryan Baxter), Джон Гудмен (Congressman Long), Ванда Сайкес (Rita), Джон Майкл Хиггинс (Marty), Джона Хилл (Eugene), Молли Шеннон (Eve Adams), Харви Преснелл (Congressman Burrows)-Описание: Эван Бакстер, которого всемогущий Брюс заставил лепетать всякую чушь во время прямого эфира новостей, уходит с работы на телевидении, ведь он дослужился до должности конгрессмена! Эван переехал в Вашингтон, полный решимости отдать всего себя служению стране, однако Господь выбирает именно Эвана для своего очередного плана: новоиспеченному конгрессмену и Божьему избраннику придется построить ковчег – да побольше знаменитого Ноева ковчега! 
--Качество: BDRip-AVC
Формат: MKV
Видео: 960x408 (2.35:1), 23.976 fps, H.264 ~1767 kbps avg, 0.189 bit/pixel
Аудио: 48 kHz, AC3 Dolby Digital, 3/2 (L,C,R,l,r) + LFE ch, ~384 kbps

Скриншоты



MediaInfo | x264

x264
x264 [info]: frame I:1607 Avg QP:17.30 size: 63455x264 [info]: frame P:30923 Avg QP:18.23 size: 18568x264 [info]: frame B:105110 Avg QP:20.74 size: 5916x264 [info]: consecutive B-frames: 2.3% 1.5% 7.3% 35.8% 15.0% 32.6% 2.2% 2.7% 0.3% 0.3%x264 [info]: mb I I16..4: 9.3% 70.4% 20.2%x264 [info]: mb P I16..4: 2.9% 10.4% 1.7% P16..4: 33.3% 27.4% 17.0% 0.0% 0.0% skip: 7.3%x264 [info]: mb B I16..4: 0.2% 0.9% 0.2% B16..8: 37.5% 12.6% 4.3% direct: 5.4% skip:38.8% L0:41.0% L1:44.6% BI:14.5%x264 [info]: 8x8 transform intra:69.7% inter:57.1%x264 [info]: coded y,uvDC,uvAC intra: 82.1% 88.1% 67.6% inter: 22.2% 15.6% 2.8%x264 [info]: i16 v,h,dc,p: 66% 9% 12% 13%x264 [info]: i8 v,h,dc,ddl,ddr,vr,hd,vl,hu: 14% 10% 10% 8% 12% 12% 12% 10% 13%x264 [info]: i4 v,h,dc,ddl,ddr,vr,hd,vl,hu: 16% 10% 5% 8% 13% 13% 12% 10% 12%x264 [info]: i8c dc,h,v,p: 50% 22% 18% 11%x264 [info]: Weighted P-Frames: Y:3.1% UV:0.7%x264 [info]: ref P L0: 47.6% 12.1% 16.9% 6.3% 5.4% 3.6% 3.2% 1.8% 1.7% 1.4% 0.1% 0.0%x264 [info]: ref B L0: 77.3% 10.0% 4.4% 2.9% 2.0% 1.4% 1.2% 0.5% 0.3%x264 [info]: ref B L1: 93.8% 6.2%
ОбщееПолное имя : Evan.Vsemogushchiy.2007.BDRip-AVC.All.Films.mkvФормат : MatroskaВерсия формата : Version 2Размер файла : 1,47 ГбайтПродолжительность : 1 ч. 35 м.Общий поток : 2195 Кбит/секДата кодирования : UTC 2012-04-05 16:43:50Программа кодирования : mkvmerge v5.4.0 ('Piper') built on Mar 10 2012 13:34:39Библиотека кодирования : libebml v1.2.3 + libmatroska v1.3.0
ВидеоИдентификатор : 1Формат : AVCФормат/Информация : Advanced Video CodecПрофиль формата : [email protected]Параметр CABAC формата : ДаПараметр ReFrames формата : 10 кадровИдентификатор кодека : V_MPEG4/ISO/AVCПродолжительность : 1 ч. 35 м.Битрейт : 1767 Кбит/секШирина : 960 пикселейВысота : 408 пикселейСоотношение сторон : 2,35:1Частота кадров : 23,976 кадра/секЦветовое пространство : YUVСубдискретизация насыщенности : 4:2:0Битовая глубина : 8 битТип развёртки : ПрогрессивнаяБит/(Пиксели*Кадры) : 0.188Размер потока : 1,18 Гбайт (81%)Заголовок : Evan.Vsemogushchiy.2007.BDRip-AVC.All.FilmsБиблиотека кодирования : x264 core 120 r2164+656 2ff844cНастройки программы : cabac=1 / ref=10 / deblock=1:-2:-1 / analyse=0x3:0x113 / me=umh / subme=10 / psy=1 / fade_compensate=0.00 / psy_rd=0.95:0.01 / mixed_ref=1 / me_range=32 / chroma_me=1 / trellis=2 / 8x8dct=1 / cqm=0 / deadzone=21,11 / fast_pskip=1 / chroma_qp_offset=-3 / threads=9 / sliced_threads=0 / nr=0 / decimate=1 / interlaced=0 / bluray_compat=0 / constrained_intra=0 / fgo=0 / bframes=9 / b_pyramid=2 / b_adapt=2 / b_bias=0 / direct=1 / weightb=1 / open_gop=0 / weightp=2 / keyint=240 / keyint_min=23 / scenecut=40 / intra_refresh=0 / rc_lookahead=60 / rc=crf / mbtree=0 / crf=18.5 / qcomp=0.65 / qpmin=0 / qpmax=69 / qpstep=4 / vbv_maxrate=50000 / vbv_bufsize=62500 / crf_max=0.0 / nal_hrd=none / ip_ratio=1.35 / pb_ratio=1.25 / aq=1:1.00Язык : EnglishDefault : ДаForced : НетОсновные цвета : BT.709-5, BT.1361, IEC 61966-2-4, SMPTE RP177Характеристики трансфера : BT.709-5, BT.1361Коэффициенты матрицы : BT.709-5, BT.1361, IEC 61966-2-4 709, SMPTE RP177
АудиоИдентификатор : 2Формат : AC-3Формат/Информация : Audio Coding 3Расширение режима : CM (complete main)Идентификатор кодека : A_AC3Продолжительность : 1 ч. 35 м.Вид битрейта : ПостоянныйБитрейт : 384 Кбит/секКаналы : 6 каналовРасположение каналов : Front: L C R, Side: L R, LFEЧастота : 48,0 КГцБитовая глубина : 16 битМетод сжатия : С потерямиРазмер потока : 263 Мбайт (17%)Заголовок : Russian DUBЯзык : RussianDefault : ДаForced : Нет

FAQ по просмотру MKV/h.264/AAC

  • Смогу ли я запустить AVC фильм на своём компьютере?
  • Сампл из раздачи не воспроизводится/тормозит или отсутствует звук/изображение. Что делать?
  • Что такое H.264/AVC и зачем он нужен?
  • Что за дурацкий формат .MKV?
  • Почему MKV? Чем AVI хуже?
  • Не могу переключить/включить/выключить аудио/видео дорожки и/или субтитры. Что делать?
  • Как сделать так, чтобы по умолчанию при просмотре MKV файлов нужные/ненужные субтитры были включены/выключены, и/или сразу проигрывалась дорожка на нужном мне языке?
  • Будут ли фильмы в таком формате проигрываться на бытовых плеерах без компьютера?
  • Проигрываю фильм, а картинка очень сильно отличается от скринов/бледная/перенасыщенная. Что не так?
  • Можно ли сконвертировать AVC в DVD?
  • Почему сплюснута картинка / в характеристиках видео указано два разрешения / что такое анаморфное разрешение?
  • Зачем релизёры обманывают качающих и пишут в заголовке 720p/1080p, а на самом деле раздают видеоматериалы в непонятных разрешениях?
  • Можно ли вывести многоканальный FLAC/AAC-звук на внешний ресивер?
  • У меня 2-канальная акустика/стереонаушники. При просмотре видео почти не слышно/совсем не слышно речь/разговоры, играют только фоновые звуки. Что делать?
  • Всё прочитал(-а), решения своей проблемы не нашёл(-шла)/не смог(-ла) разобраться. Что делать?
  • Создавать темы 17-Июн-2014 16:39

    [Профиль]  [ЛС] 

    Android

    Стаж: 4 года 2 месяца

    Сообщений: 73

    Симпатии: 11

    Эван Всемогущий - это первая часть, а Брюс Всемогущий - это 2 часть?

    _________________
    Подпись отключена за нарушение правил форума

    Создавать темы 17-Июн-2014 17:36

    [Профиль]  [ЛС] 

    razor2011 ®

    Стаж: 5 лет 3 месяца

    Сообщений: 227

    Симпатии: 37

    844651Эван Всемогущий - это первая часть, а Брюс Всемогущий - это 2 часть?
    наоборот

    Создавать темы 17-Июн-2014 19:00

    [Профиль]  [ЛС] 

    Топик был перенесен из форума Фильмы до 2010 в форум HD-AVC
    Mixer City

    Создавать темы 18-Июн-2014 04:03

     

    Android

    Стаж: 4 года 2 месяца

    Сообщений: 73

    Симпатии: 11

    razor2011, Понятно

    _________________
    Подпись отключена за нарушение правил форума

    Создавать темы 18-Июн-2014 12:20

    [Профиль]  [ЛС] 
    Показать сообщения:    
    Ответить на тему

    Текущее время: 18-Дек 00:37

    Часовой пояс: UTC + 5



    Вы не можете начинать темы
    Вы не можете отвечать на сообщения
    Вы не можете редактировать свои сообщения
    Вы не можете удалять свои сообщения
    Вы не можете голосовать в опросах
    Вы не можете прикреплять файлы к сообщениям
    Вы не можете скачивать файлы