Триумф: История Рона Кларка (ТВ) / The Ron Clark Story (Рэнда Хейнс) [2006 г., драма, биография, DVDRip]

Ответить на тему
 

S()me()ne ®

Стаж: 3 года 7 месяцев

Сообщений: 26

Симпатии: 3

Триумф: История Рона Кларка (ТВ) / The Ron Clark Story
Год выпуска: 2006
Страна: США, Канада
Жанр: драма, биография

Продолжительность: 1:30:21
Звуковые дорожки: Русская (сносная) и Английская
Перевод: Профессиональный (многоголосый, закадровый)
Описание: Педагог-идеалист оставляет провинцию, чтобы преподавать в одной из школ Нью-Йорка, имеющей дурную славу, где он использует всю свою страсть и инновационные методы, чтобы вдохновить и зажечь сердца своих новых учеников.
Дополнительно: Это широкоформатная (не обрезанная) версия фильма.

Режиссер: Рэнда Хейнс
В Ролях:Меттью Перри,Брэндон Смит,Ханна Ходсон,Эрни Хадсон,Мелисса де Соуса
Слоган: «No one believed in them. Except him»
Сценарий: Энни Деянг, Макс Энскоу
Продюсер: Том Кокс, Крэйг МаНил, Мюррэй Орд, ...
Оператор: Дерик В. Ундершульц
Композитор: Марк Адлер
Художник: Луиз Миддлтон, Кэти Кауэн, Кристин Томсон, ...
Монтаж: Хезер Персонс
Качество: DVDRip
Формат: AVI
Видео кодек: XviD
Аудио кодек: MP3
Видео: Bit rate: 1 680 Kbps Width: 720 pixels Height: 416 pixels
Аудио: Bit rate: 128 Kbps Channel(s): 2 channels Sampling rate: 44.1 KHz

Рейтинг в кинопоиске 

Media Info

Format : AVI
Format/Info : Audio Video Interleave
File size : 1.27 GiB
Duration : 1h 30mn
Overall bit rate : 2 014 Kbps
Writing application : VirtualDubMod 1.5.10.2 (build 2542/release)
Writing library : VirtualDubMod build 2542/release
Video
ID : 0
Format : MPEG-4 Visual
Format profile : [email protected]
Format settings, BVOP : No
Format settings, QPel : No
Format settings, GMC : No warppoints
Format settings, Matrix : Default (H.263)
Codec ID : XVID
Codec ID/Hint : XviD
Duration : 1h 30mn
Bit rate : 1 680 Kbps
Width : 720 pixels
Height : 416 pixels
Display aspect ratio : 1.731
Frame rate : 23.976 fps
Color space : YUV
Chroma subsampling : 4:2:0
Bit depth : 8 bits
Scan type : Progressive
Compression mode : Lossy
Bits/(Pixel*Frame) : 0.234
Stream size : 1.06 GiB (83%)
Writing library : XviD 1.2.0.dev47 (UTC 2006-11-01)
Audio #1
ID : 1
Format : MPEG Audio
Format version : Version 1
Format profile : Layer 3
Mode : Joint stereo
Codec ID : 55
Codec ID/Hint : MP3
Duration : 1h 30mn
Bit rate mode : Constant
Bit rate : 128 Kbps
Channel(s) : 2 channels
Sampling rate : 44.1 KHz
Compression mode : Lossy
Delay relative to video : 20ms
Stream size : 82.7 MiB (6%)
Alignment : Split accross interleaves
Interleave, duration : 42 ms (1.00 video frame)
Interleave, preload duration : 500 ms
Language : English / English
Audio #2
ID : 2
Format : AC-3
Format/Info : Audio Coding 3
Mode extension : CM (complete main)
Format settings, Endianness : Big
Codec ID : 2000
Duration : 1h 30mn
Bit rate mode : Constant
Bit rate : 192 Kbps
Channel(s) : 2 channels
Channel positions : Front: L R
Sampling rate : 48.0 KHz
Bit depth : 16 bits
Compression mode : Lossy
Stream size : 124 MiB (10%)
Alignment : Split accross interleaves
Interleave, duration : 42 ms (1.00 video frame)
Interleave, preload duration : 500 ms

Скриншоты







Последний раз редактировалось: S()me()ne (2014-06-18 11:54), всего редактировалось 1 раз

Создавать темы 17-Июн-2014 21:52

[Профиль]  [ЛС] 

Mixer City

Стаж: 6 лет 9 месяцев

Сообщений: 754

Симпатии: 63

S()me()ne, оформить нужно по шаблону, с описанием!

Создавать темы 18-Июн-2014 04:00

[Профиль]  [ЛС] 

shahz

Стаж: 5 лет 7 месяцев

Сообщений: 192

Симпатии: 9

844858S()me()ne, оформить нужно по шаблону, с описанием!
Продолжительность: 1:30:21
Звуковые дорожки: Русская (сносная) и Английская
Перевод: Профессиональный (многоголосый, закадровый)
Описание: Педагог-идеалист оставляет провинцию, чтобы преподавать в одной из школ Нью-Йорка, имеющей дурную славу, где он использует всю свою страсть и инновационные методы, чтобы вдохновить и зажечь сердца своих новых учеников.
Дополнительно: Это широкоформатная (не обрезанная) версия фильма.
S()me()ne большое спасибо! tf

Создавать темы 18-Июн-2014 12:16

[Профиль]  [ЛС] 

asil773

Стаж: 5 лет 7 месяцев

Сообщений: 16

Симпатии: 2

Ребята помогите пожалуйста скачать

Создавать темы 07-Июл-2016 23:02

[Профиль]  [ЛС] 
Показать сообщения:    
Ответить на тему

Текущее время: 23-Сен 16:10

Часовой пояс: UTC + 5



Вы не можете начинать темы
Вы не можете отвечать на сообщения
Вы не можете редактировать свои сообщения
Вы не можете удалять свои сообщения
Вы не можете голосовать в опросах
Вы не можете прикреплять файлы к сообщениям
Вы не можете скачивать файлы