Леонид Агутин. Юбилейный Концерт (Leonid Agutin 45) [2014 г., Юбилейный Концерт. Pop] [720p]

Ответить на тему
 

timmylove ®

Стаж: 4 года 5 месяцев

Сообщений: 113

Симпатии: 11

Леонид Агутин. Юбилейный Концерт (Leonid Agutin 45)- Год выпуска: 2014
Страна: Россия
Жанр: Юбилейный Концерт. Pop
Продолжительность: 1ч 34м-Качество: HDTV 720p
Контейнер: MP4
Видео кодек: AVC
Аудио кодек: AAC
Видео: AVC; 1280x720; 25.000 fps; 2 619 Kbps
Аудио: AAC; stereo 192 Кбит/сек; 44.1 KHz-Описание: 8 декабря 2013 года. Москва. Крокус сити холл.
Юбилейный концерт признанного поэта и музыканта, маэстро российской сцены Леонида Агутина, посвященный его 45-летию.. Только "живое" исполнение в сопровождении выдающихся музыкантов группы "Эсперанто". Музыка Леонида Агутина - такая разная: зажигательная, серьезная, романтичная, но всегда такая настоящая.

Tracks

01. Леонид Агутин - Ты вернёшься когда-нибудь снова
02. Леонид Агутин - По дороге на юг
03. Леонид Агутин - Половина сердца
04. Леонид Агутин - Всё куда-то девалось
05. Леонид Агутин - Всё только для тебя
06. Леонид Агутин - Кого не стоило бы ждать
07. Леонид Агутин - Пароход
08. Леонид Агутин - Время последних романтиков
09. Леонид Агутин - Парень чернокожий
10. Леонид Агутин - Остров
11. Леонид Агутин, N.A.O.M.I - Игрушки
12. Леонид Агутин, Tomas N'evergreen - Ай-я-яй
13. Леонид Агутин, Анжелика Варум - Как не думать о тебе
14. Леонид Агутин - Хоп-хей, ла-ла-лэй!
15. Леонид Агутин, участники проекта Голос - Босоногий мальчик
16. Леонид Агутин, Владимир Пресняков - Аэропорты
17. Леонид Агутин - Оле-оле
18. Леонид Агутин, участники проекта Голос - На сиреневой луне

Скриншоты

Media Info

Format : MPEG-4
Format profile : Base Media / Version 2
Codec ID : mp42
File size : 1.85 GiB
Duration : 1h 33mn
Overall bit rate mode : Variable
Overall bit rate : 2 814 Kbps
Encoded date : UTC 2014-06-15 18:55:12
Tagged date : UTC 2014-06-15 18:55:12
gsst : 0
gstd : 5639731
gssd : B4A7D6EE1HH1402989695356064
gshh : r1---sn-n8v7sn7d.googlevideo.com
Video
ID : 1
Format : AVC
Format/Info : Advanced Video Codec
Format profile : [email protected]
Format settings, CABAC : Yes
Format settings, ReFrames : 1 frame
Codec ID : avc1
Codec ID/Info : Advanced Video Coding
Duration : 1h 33mn
Bit rate : 2 619 Kbps
Maximum bit rate : 7 451 Kbps
Width : 1 280 pixels
Height : 720 pixels
Display aspect ratio : 16:9
Frame rate mode : Constant
Frame rate : 25.000 fps
Color space : YUV
Chroma subsampling : 4:2:0
Bit depth : 8 bits
Scan type : Progressive
Bits/(Pixel*Frame) : 0.114
Stream size : 1.72 GiB (93%)
Tagged date : UTC 2014-06-15 19:00:53
Audio
ID : 2
Format : AAC
Format/Info : Advanced Audio Codec
Format profile : LC
Codec ID : 40
Duration : 1h 33mn
Bit rate mode : Variable
Bit rate : 192 Kbps
Maximum bit rate : 202 Kbps
Channel(s) : 2 channels
Channel positions : Front: L R
Sampling rate : 44.1 KHz
Compression mode : Lossy
Stream size : 129 MiB (7%)


Последний раз редактировалось: timmylove (2014-06-20 02:28), всего редактировалось 1 раз

Создавать темы 18-Июн-2014 13:04

[Профиль]  [ЛС] 

panno4ka

Стаж: 4 года 11 месяцев

Сообщений: 51

Симпатии: 3

Большое спасибо! Концерт замечательный и такой позитив! С удовольствием пересматриваю)
Пожалуйста закачайте концерт В ЖИЗНИ РАЗ БЫВАЕТ 60! Творческий вечер Крутого И. По телеку реклама была, а сам концерт не показывали или я пропустила;)
заранее благодарю :)))))

Создавать темы 07-Дек-2014 11:38

[Профиль]  [ЛС] 
Показать сообщения:    
Ответить на тему

Текущее время: 16-Дек 20:03

Часовой пояс: UTC + 5



Вы не можете начинать темы
Вы не можете отвечать на сообщения
Вы не можете редактировать свои сообщения
Вы не можете удалять свои сообщения
Вы не можете голосовать в опросах
Вы не можете прикреплять файлы к сообщениям
Вы не можете скачивать файлы