Детективы Агаты Кристи: Зеркальное убийство / Murder with Mirrors (Дик Лоури) [1985 г., криминал, детектив, ..., DVDRip]

Ответить на тему
 

igor1968 ®

Стаж: 5 лет 8 месяцев

Сообщений: 366

Симпатии: 197

Детективы Агаты Кристи: Зеркальное убийство / Murder with Mirrors
Год выпуска: 1985
Страна:
Жанр: криминал, детектив, ...
Продолжительность: 01:30:25.919
Перевод: Профессиональный (полное дублирование)
Режиссер: Дик Лоури
В ролях:
Хелен Хэйес
Бетт Дэвис
Джон Миллз
Лео МакКерн
Лиэн Лэнгланд
Джон Лофлин
Дороти Тьютин
Антон Роджерс
Фрэнсис де ла Тур
Джон Вудвайн
Тим Рот
...
Роли дублировали:
Ирина Губанова
Елена Соловьева
Игорь Тарадайкин
Марина Тарасова
Надежда Подъяпольская
...
Мисс Марпл по просьбе своего знакомого, сэра Кристиана, решила провести пару недель в гостях у другой пожилой леди, своей приятельницы. Мисс Марпл оказалась к месту: через два дня после ее приезда сэра Кристиана нашли убитым в гостиной хозяйки дома…-Качество: DVDRip
Формат: AVI
Видео кодек: XviD
Аудио кодек: AC3
Видео: 512x384 (1.33:1), 25 fps, XviD MPEG-4 ~1898 kbps avg, 0.39 bit/pixel
Аудио: 48 kHz, AC3 Dolby Digital, 2/0 (L,R) ch, ~256.00 kbps avg-

MediaInfo

General
Complete name : Agata.Kristi.Zerkalnoe.Ubiystvo.1985.XviD.DVDRip.avi
Format : AVI
Format/Info : Audio Video Interleave
File size : 1.37 GiB
Duration : 1h 30mn
Overall bit rate : 2 164 Kbps
Writing application : VirtualDubMod 1.5.10.2 (build 2540/release)
Writing library : VirtualDubMod build 2540/release
Video
ID : 0
Format : MPEG-4 Visual
Format profile : Advanced [email protected]
Format settings, BVOP : No
Format settings, QPel : No
Format settings, GMC : No warppoints
Format settings, Matrix : Default (MPEG)
Codec ID : XVID
Codec ID/Hint : XviD
Duration : 1h 30mn
Bit rate : 1 899 Kbps
Width : 512 pixels
Height : 384 pixels
Display aspect ratio : 4:3
Frame rate : 25.000 fps
Color space : YUV
Chroma subsampling : 4:2:0
Bit depth : 8 bits
Scan type : Progressive
Compression mode : Lossy
Bits/(Pixel*Frame) : 0.386
Stream size : 1.20 GiB (88%)
Writing library : XviD 1.2.0.dev47 (UTC 2006-11-01)
Audio
ID : 1
Format : AC-3
Format/Info : Audio Coding 3
Mode extension : CM (complete main)
Format settings, Endianness : Big
Codec ID : 2000
Duration : 1h 30mn
Bit rate mode : Constant
Bit rate : 256 Kbps
Channel count : 2 channels
Channel positions : Front: L R
Sampling rate : 48.0 KHz
Bit depth : 16 bits
Compression mode : Lossy
Delay relative to video : 27ms
Stream size : 166 MiB (12%)
Alignment : Split accross interleaves
Interleave, duration : 40 ms (1.00 video frame)
Interleave, preload duration : 500 ms
-

Скриншоты

- - ]

Создавать темы 20-Июн-2014 11:02

[Профиль]  [ЛС] 

abut

Стаж: 4 года

Сообщений: 27

Симпатии: 7

Интересно будет посмотреть. Однако, лучшая мисс Марпл, по моему мнению, это Джоан Хиксон.

Создавать темы 20-Июн-2014 23:37

[Профиль]  [ЛС] 
Показать сообщения:    
Ответить на тему

Текущее время: 22-Ноя 18:07

Часовой пояс: UTC + 5



Вы не можете начинать темы
Вы не можете отвечать на сообщения
Вы не можете редактировать свои сообщения
Вы не можете удалять свои сообщения
Вы не можете голосовать в опросах
Вы не можете прикреплять файлы к сообщениям
Вы не можете скачивать файлы