Принцесса Монако / Grace of Monaco|(Оливье Даан)|[2014,Драма, мелодрама, биография,WEB-DLRip][Чистый звук]

Ответить на тему
 

Каротажник ®

Стаж: 3 года 10 месяцев

Сообщений: 195

Симпатии: 211



Год выпуска: 2013
Страна: Франция, США, Бельгия, Италия, Швейцария
Жанр: Драма, мелодрама, биография

Продолжительность: 01:37:16
Перевод: Дублированный[Чистый звук]

Режиссёр: Оливье Даан

Николь Кидман, Пас Вега, Майло Вентимилья, Тим Рот, Паркер Поузи, Джеральдин Сомервилль, Дерек Джекоби, Фрэнк Ланджелла, Роджер Эштон-Гриффитс, Николас Фэррел

Весь Голливуд лежал у ее ног — роскошные виллы, oскаровские приемы и шикарные мужчины, но она выбрала королевский дворец, аристократические балы и благородного принца из маленькой страны недалеко от Франции. Она была королевой Голливуда, но предпочла стать Принцессой Монако.




Качество: WEB-DLRip
Формат: Avi

Видео: Xvid 720x304 24fps
Аудио: AC3 48000Hz stereo 192kbps

Media Info

Format : AVI
Format/Info : Audio Video Interleave
File size : 1.37 GiB
Duration : 1h 37mn
Overall bit rate : 2 022 Kbps
Writing application : VirtualDubMod 1.5.10.3 | www.virtualdub-fr.org || (build 2550/release)
Writing library : VirtualDubMod build 2550/release
Video
ID : 0
Format : MPEG-4 Visual
Format profile : Advanced [email protected]
Format settings, BVOP : Yes
Format settings, QPel : No
Format settings, GMC : No warppoints
Format settings, Matrix : Custom
Codec ID : XVID
Codec ID/Hint : XviD
Duration : 1h 37mn
Bit rate : 1 821 Kbps
Width : 720 pixels
Height : 304 pixels
Display aspect ratio : 2.35:1
Frame rate : 24.000 fps
Color space : YUV
Chroma subsampling : 4:2:0
Bit depth : 8 bits
Scan type : Progressive
Compression mode : Lossy
Bits/(Pixel*Frame) : 0.347
Stream size : 1.24 GiB (90%)
Writing library : XviD 1.2.1 (UTC 2008-12-04)
Audio
ID : 1
Format : AC-3
Format/Info : Audio Coding 3
Mode extension : CM (complete main)
Format settings, Endianness : Big
Codec ID : 2000
Duration : 1h 37mn
Bit rate mode : Constant
Bit rate : 192 Kbps
Channel count : 2 channels
Channel positions : Front: L R
Sampling rate : 48.0 KHz
Bit depth : 16 bits
Compression mode : Lossy
Stream size : 134 MiB (9%)
Alignment : Split accross interleaves
Interleave, duration : 42 ms (1.00 video frame)
Interleave, preload duration : 500 ms

Скриншоты


Создавать темы 21-Июн-2014 04:28

[Профиль]  [ЛС] 

Android

Стаж: 3 года 10 месяцев

Сообщений: 73

Симпатии: 11

ErEkE?

_________________
Подпись отключена за нарушение правил форума

Создавать темы 21-Июн-2014 07:59

[Профиль]  [ЛС] 

KuZmA

Стаж: 6 лет 7 месяцев

Сообщений: 12

за оформления Лайк с меня!

Создавать темы 21-Июн-2014 20:53

[Профиль]  [ЛС] 

farrux_93

Стаж: 4 года 7 месяцев

Сообщений: 24

Прощу добавьте эти фильмы:Сердце льва.Глория

Создавать темы 21-Июн-2014 23:41

[Профиль]  [ЛС] 

Sitora

Стаж: 5 лет 7 месяцев

Сообщений: 15

Симпатии: 1

Классное оформление! Надеюсь и фильм не разочарует. Спасибо за релиз!

Создавать темы 23-Июн-2014 13:26

[Профиль]  [ЛС] 

shinso

Стаж: 4 года 7 месяцев

Сообщений: 3

блин) прочитал Принцесса Мононока - подумал аниме пересняли )))

Создавать темы 27-Июн-2014 22:33

[Профиль]  [ЛС] 

Dior7

Стаж: 5 лет 1 месяц

Сообщений: 35

Симпатии: 1

Как фильм? Стоит смотреть?

Создавать темы 28-Июн-2014 10:45

[Профиль]  [ЛС] 

jinada

Стаж: 4 года 6 месяцев

Сообщений: 20

блин чето фильмец то тормозит, как будто с нета грузится ужс какой то у всех так ? Остальные фильмы у меня нормально работают, этот тупит страшно...

Создавать темы 01-Июл-2014 17:17

[Профиль]  [ЛС] 

ktyjlx

Стаж: 4 года 1 месяц

Сообщений: 1

Картинка то тормозит, то ускоряется. Само качество изображение на троечку. Есть у кого фильм в более приемлемом качестве?

Создавать темы 11-Сен-2014 21:19

[Профиль]  [ЛС] 
Показать сообщения:    
Ответить на тему

Текущее время: 21-Авг 06:02

Часовой пояс: UTC + 5



Вы не можете начинать темы
Вы не можете отвечать на сообщения
Вы не можете редактировать свои сообщения
Вы не можете удалять свои сообщения
Вы не можете голосовать в опросах
Вы не можете прикреплять файлы к сообщениям
Вы не можете скачивать файлы