Жестокий ринг / Victor Young Perez (Жак Уаниш.) [2013 г., Драма, биография, история, спорт., WEB-DL 720p]

Ответить на тему
 

X3JumperRaZ0R ®

Стаж: 5 лет 2 месяца

Сообщений: 177

Симпатии: 151

---Год выпуска: 2013.
Страна: Болгария, Франция, Израиль.
Жанр: Драма, биография, история, спорт.
Продолжительность: 01:49:57
Перевод: Профессиональный (полное дублирование) [iTunes]--Режиссер: Жак Уаниш.--В ролях: Брахим Аслум, Стив Суисса, Изабелла Орсини, Патрик Бушите, Дави Сарду, Брюс Пэйн, Pierre-Henri Toubas, Ромен Канонн, Алаа Омузун, Рома...
---Описание: Историческая драма, основанная на реальной истории Виктора Переса, который стал чемпионом мира по боксу в 1930-е годы в Париже и был женат на знаменитой французской актрисе. Из-за его еврейского происхождения он был депортирован в Освенцим…---Качество: WEB-DL 720p.
Формат: MKV.
Видео кодек: AVC.
Аудио кодек: AC3.
Видео: AVC, 4047 kb/s, 1280x532...
Аудио: АС3, 6 ch, 384 Кбит/с...---

MI

General
Unique ID : 225991064003088550880231729945743136769 (0xAA044BB5243145239CB04B902F571801)
Complete name : D:\kino-5\2014 ([email protected]) RaZ0R xJ\Jestokiy.Ring.2014.D.WEB-DL_720P.([email protected]).RaZ0R.xJ.mkv
Format : Matroska
File size : 3.33 GiB
Duration : 1h 49mn
Overall bit rate : 4 340 Kbps
Encoded date : UTC 2014-06-18 22:57:41
Writing application : mkvmerge v7.0.0 ('Where We Going') 64bit built on Jun 9 2014 15:16:27
Writing library : libebml v1.3.0 + libmatroska v1.4.1
Video
ID : 1
Format : AVC
Format/Info : Advanced Video Codec
Format profile : [email protected]
Format settings, CABAC : No
Format settings, ReFrames : 2 frames
Codec ID : V_MPEG4/ISO/AVC
Duration : 1h 49mn
Bit rate : 3 870 Kbps
Width : 1 280 pixels
Height : 532 pixels
Display aspect ratio : 2.40:1
Frame rate : 24.000 fps
Color space : YUV
Chroma subsampling : 4:2:0
Bit depth : 8 bits
Scan type : Progressive
Bits/(Pixel*Frame) : 0.237
Stream size : 2.97 GiB (89%)
Language : English
Color primaries : BT.709-5, BT.1361, IEC 61966-2-4, SMPTE RP177
Transfer characteristics : BT.709-5, BT.1361
Matrix coefficients : BT.709-5, BT.1361, IEC 61966-2-4 709, SMPTE RP177
Audio
ID : 2
Format : AC-3
Format/Info : Audio Coding 3
Mode extension : CM (complete main)
Codec ID : A_AC3
Duration : 1h 49mn
Bit rate mode : Constant
Bit rate : 384 Kbps
Channel(s) : 6 channels
Channel positions : Front: L C R, Side: L R, LFE
Sampling rate : 48.0 KHz
Bit depth : 16 bits
Compression mode : Lossy
Stream size : 302 MiB (9%)
Language : Russian
Menu
00:00:00.000 : en:Глава 1
00:07:52.000 : en:Глава 2
00:13:05.000 : en:Глава 3
00:18:06.000 : en:Глава 4
00:23:11.000 : en:Глава 5
00:28:13.000 : en:Глава 6
00:33:20.000 : en:Глава 7
00:38:21.000 : en:Глава 8
00:43:49.000 : en:Глава 9
00:49:09.000 : en:Глава 10
00:54:19.000 : en:Глава 11
00:59:27.000 : en:Глава 12
01:04:33.000 : en:Глава 13
01:09:36.000 : en:Глава 14
01:14:47.000 : en:Глава 15
01:19:50.000 : en:Глава 16
01:24:52.000 : en:Глава 17
01:30:17.000 : en:Глава 18
01:35:18.000 : en:Глава 19
01:40:20.000 : en:Глава 20

Скриншоты








Создавать темы 21-Июн-2014 21:54

[Профиль]  [ЛС] 
Показать сообщения:    
Ответить на тему

Текущее время: 25-Сен 00:34

Часовой пояс: UTC + 5



Вы не можете начинать темы
Вы не можете отвечать на сообщения
Вы не можете редактировать свои сообщения
Вы не можете удалять свои сообщения
Вы не можете голосовать в опросах
Вы не можете прикреплять файлы к сообщениям
Вы не можете скачивать файлы