Винсент и Тео / Vincent & Theo (Роберт Олтмен) [1990 г., драма, биография, ..., DVDRip]

Ответить на тему
 

igor1968 ®

Стаж: 5 лет 8 месяцев

Сообщений: 366

Симпатии: 197

Винсент и Тео / Vincent & Theo«An obsessive vision. A desperate dream. A world that didn't understand... And a brother that did» Год выпуска: 1990
Страна:
Жанр: драма, биография, ...
Продолжительность: 02:14:04.040
Перевод: Профессиональный (многоголосый, закадровый)
Режиссер: Роберт Олтмен
В ролях: Тим Рот
Пол Рис
Эдриан Брайн
Жан-Франсуа Перрье
Ив Данжерфильд
Ганс Кестинг
Петер Тёйнман
Мари Луиз Стейнс
Ода Спелбос
Ип Вейнгарден
...
На занятия живописью Ван Гогу было отмерено всего лишь одно десятилетие, однако за это время он написал около 800 картин и прошел путь от неуверенного новичка до зрелого мастера, одержимого собственным искусством и сжигающего ради него все мосты.- -

Рецензии

Жанр кинобиографии — яма, которую выкопала себе не одна съёмочная группа. Картины, повествующие о перипетиях жизни одной человеческой вспышки, или открывающие нам «неизвестное в известных» — общественность сыта такими фильмами, сыта по горло. Ленты подобного плана зачастую топорны («Модильяни»), пестрят громкими ошибками. Во множестве случаев закрадывается мысль: а читал ли в принципе автор сценария реальную биографию своего персонажа? Кроме того, бытует обыкновение составлять на основе реальных биографических сведений лишь общую канву событий, при этом личность искажается до неузнаваемости («Мелкие останки»). Вследствие этого можно было бы отказаться от рассмотрения подобных фильмов как средств точного биографического познания и воспринимать их исключительно как художественное произведение и соответствующе оценивать. Но и тут зрителя, чаще чем хотелось бы, поджидает масса неувязок и раздражающих факторов.
Всё это не имеет ровным счётом никакого отношения к фильму «Винсент и Тео». Во-первых, он необычен — перед нами фаза жизненного пути не только великого живописца, но и поверенного в делах его души — брата, известного по их совместной переписке. Биографический дуэт, две судьбы, создающие друг друга.
Тому, кто меня теперь читает — мне не хотелось бы нарушать особенной «погоды» этого фильма, и разбирать его лабораторным методом. Это картина — до некоторой степени картина в буквальном смысле, в которой сплелись драматургия контрастов и декорации из пятен краски — должна восприниматься целостно и индивидуально. Скажу лишь — пыль, кашель, грязь, поиск. Пшеничные моря. Насквозь ангажированный Париж. Мир как договор, как заговор, как оговорка. Этот фильм как живописное полотно — говорит с нами на языке образов, переходя к воспалённым монологам лишь в моменты срыва — ведь в каждом художнике сидит человек. Кем был Ван Гог — трудолюбивым, отсюда — гениальным живописцем, или прежде всего прочего — человеком, общающимся с миром напрямую, преисполненным наивной свободы?
Этот фильм, в отличие от «коллег» по жанру, не оскорбляет память рассматриваемой личности грязным сапогом неуклюжей интерпретации, напротив. В нём не чувствуется грубого подобострастия — лишь мягкий, но пронзительный и внимательный взгляд, словно взгляд самого художника, снова и снова пытающегося проникнуть в суть вещей.
-Качество: DVDRip
Формат: AVI
Видео кодек: XviD
Аудио кодек: MPEG Audio
Видео: 640x368 (1.74:1), 25 fps, XviD MPEG-4 ~1188 kbps avg, 0.20 bit/pixel
Audio #1: 48 kHz, MPEG Layer 3, 2 ch, ~128.00 kbps avg (rus)
Audio #2: 48 kHz, MPEG Layer 3, 2 ch, ~128.00 kbps avg (eng)-

MediaInfo

General
Complete name : vincent & theo.avi
Format : AVI
Format/Info : Audio Video Interleave
File size : 1.37 GiB
Duration : 2h 14mn
Overall bit rate : 1 459 Kbps
Writing application : VirtualDubMod 1.5.10.2 (build 2540/release)
Writing library : VirtualDubMod build 2540/release
Video
ID : 0
Format : MPEG-4 Visual
Format profile : Advanced [email protected]
Format settings, BVOP : Yes
Format settings, QPel : No
Format settings, GMC : No warppoints
Format settings, Matrix : Default (H.263)
Codec ID : XVID
Codec ID/Hint : XviD
Duration : 2h 14mn
Bit rate : 1 189 Kbps
Width : 640 pixels
Height : 368 pixels
Display aspect ratio : 1.739
Frame rate : 25.000 fps
Color space : YUV
Chroma subsampling : 4:2:0
Bit depth : 8 bits
Scan type : Progressive
Compression mode : Lossy
Bits/(Pixel*Frame) : 0.202
Stream size : 1.11 GiB (81%)
Writing library : XviD 1.2.0SMP (UTC 2006-01-08)
Audio #1
ID : 1
Format : MPEG Audio
Format version : Version 1
Format profile : Layer 3
Mode : Joint stereo
Mode extension : MS Stereo
Codec ID : 55
Codec ID/Hint : MP3
Duration : 2h 14mn
Bit rate mode : Constant
Bit rate : 128 Kbps
Channel count : 2 channels
Sampling rate : 48.0 KHz
Compression mode : Lossy
Stream size : 123 MiB (9%)
Alignment : Aligned on interleaves
Interleave, duration : 40 ms (1.00 video frame)
Interleave, preload duration : 504 ms
Audio #2
ID : 2
Format : MPEG Audio
Format version : Version 1
Format profile : Layer 3
Mode : Joint stereo
Mode extension : MS Stereo
Codec ID : 55
Codec ID/Hint : MP3
Duration : 2h 14mn
Bit rate mode : Constant
Bit rate : 128 Kbps
Channel count : 2 channels
Sampling rate : 48.0 KHz
Compression mode : Lossy
Stream size : 123 MiB (9%)
Alignment : Aligned on interleaves
Interleave, duration : 40 ms (1.00 video frame)
Interleave, preload duration : 504 ms
- - - -


Последний раз редактировалось: igor1968 (2014-06-22 19:44), всего редактировалось 3 раз(а)

Создавать темы 22-Июн-2014 09:17

[Профиль]  [ЛС] 

slimshady

Стаж: 5 лет 2 месяца

Сообщений: 6

Симпатии: 2

Tim Rot mening eng sevimli aktyorlarimdan biri! U o'z rollarini yuksak mahorat bilan ijro qiladi

Комментарий от mp1988


Запрещается использовать в общении на форуме язык, отличный от русского, и шрифт, отличный от кириллического (за исключением раздела Ўзбек тилида сўзлашувчилар учун).

Создавать темы 22-Июн-2014 11:45

[Профиль]  [ЛС] 
Показать сообщения:    
Ответить на тему

Текущее время: 21-Ноя 03:43

Часовой пояс: UTC + 5



Вы не можете начинать темы
Вы не можете отвечать на сообщения
Вы не можете редактировать свои сообщения
Вы не можете удалять свои сообщения
Вы не можете голосовать в опросах
Вы не можете прикреплять файлы к сообщениям
Вы не можете скачивать файлы