300 спартанцев: Расцвет империи / 300 Rise of an Empire (Ноам Мурро / Noam Murro) [2014, США, Боевик, драма, военный, BDRemux 1080p] Dub [iTunes] + Sub rus, eng

Ответить на тему
 

yusuf.0088 ®

Стаж: 4 года 1 месяц

Сообщений: 116

Симпатии: 69

300 спартанцев: Расцвет империи / 300 Rise of an Empire
«Смерти вопреки»-- Страна: США
Жанр: Боевик, драма, военный
Год выпуска: 2014
Продолжительность: 01:42:38
Перевод: Профессиональный (дублированный) [iTunes]
Оригинальная аудиодорожка: Английская
Cубтитры: Английские--Режиссер: Ноам Мурро / Noam Murro--В ролях: Салливан Степлтон, Ева Грин, Джек О`Коннелл, Каллэн Мулвей, Ханс Мэтисон, Родриго Санторо, Лина Хиди, Дэвид Уэнэм, Эндрю Тирнан, Эндрю Плевин, Игал Наор, Питер Менса--Описание:
После победы над царем Леонидом персидская армия во главе с Ксерксом движется на юг. На её пути оказывается флот Афин под руководством адмирала Фемистокла. Силы противников не равны, и Фемистокл вынужден вступить в союз с заклятым врагом афинского государства Спартой. Только объединившись у враждующих полисов-государств есть шанс что-то противопоставить могущественному Ксерксу.-- --Качество: BDRemux 1080p
Релиз: сборка Yusuf
Контейнер: MKV
Видео: MPEG-4 AVC / High Profile 4.1 / 1920x1080 / 23.976 fps / 26900 kbps
Аудио 1: Русский / AC3 6ch / 48 KHz / 384 kbps |Дубляж|
Аудио 2: Английский / AC3 6ch / 48 KHz / 448 kbps |Original|
Сохранены оригинальные чаптеры как на Blu-Ray

MediaInfo

Формат : Matroska
Версия формата : Version 4 / Version 2
Размер файла : 20,3 Гбайт
Продолжительность : 1 ч. 42 м.
Режим общего битрейта : Переменный
Общий поток : 28,3 Мбит/сек
Название фильма : 300.Rise.Of.An.Empire.2014.BDRemux.1080p.by.Yusuf.mkv
Дата кодирования : UTC 2014-06-20 02:51:23
Программа кодирования : mkvmerge v6.0.0 ('Coming Up For Air') built on Jan 20 2013 09:52:00
Библиотека кодирования : libebml v1.3.0 + libmatroska v1.4.0
Видео
Идентификатор : 1
Формат : AVC
Формат/Информация : Advanced Video Codec
Профиль формата : [email protected]
Параметр CABAC формата : Да
Параметр ReFrames формата : 2 кадра
Параметр GOP формата : M=1, N=10
Идентификатор кодека : V_MPEG4/ISO/AVC
Продолжительность : 1 ч. 42 м.
Вид битрейта : Переменный
Битрейт : 26,9 Мбит/сек
Ширина : 1920 пикселей
Высота : 1080 пикселей
Соотношение сторон : 16:9
Режим частоты кадров : Постоянный
Частота кадров : 23,976 кадра/сек
Цветовое пространство : YUV
Субдискретизация насыщенности : 4:2:0
Битовая глубина : 8 бит
Тип развёртки : Прогрессивная
Бит/(Пиксели*Кадры) : 0.542
Размер потока : 19,3 Гбайт (95%)
Default : Да
Forced : Нет
Аудио #1
Идентификатор : 2
Формат : AC-3
Формат/Информация : Audio Coding 3
Расширение режима : CM (complete main)
Параметр Endianness формата : Big
Идентификатор кодека : A_AC3
Продолжительность : 1 ч. 42 м.
Вид битрейта : Постоянный
Битрейт : 384 Кбит/сек
Каналы : 6 каналов
Расположение каналов : Front: L C R, Side: L R, LFE
Частота : 48,0 КГц
Битовая глубина : 16 бит
Метод сжатия : С потерями
Размер потока : 282 Мбайт (1%)
Заголовок : iTunes
Язык : Russian
Default : Да
Forced : Нет
Аудио #2
Идентификатор : 3
Формат : AC-3
Формат/Информация : Audio Coding 3
Расширение режима : CM (complete main)
Параметр Endianness формата : Big
Идентификатор кодека : A_AC3
Продолжительность : 1 ч. 42 м.
Вид битрейта : Постоянный
Битрейт : 448 Кбит/сек
Каналы : 6 каналов
Расположение каналов : Front: L C R, Side: L R, LFE
Частота : 48,0 КГц
Битовая глубина : 16 бит
Метод сжатия : С потерями
Размер потока : 329 Мбайт (2%)
Язык : English
Default : Нет
Forced : Нет
Текст #1
Идентификатор : 4
Формат : UTF-8
Идентификатор кодека : S_TEXT/UTF8
Идентификатор кодека/Информация : UTF-8 Plain Text
Заголовок : Full
Язык : English
Default : Нет
Forced : Нет
Текст #2
Идентификатор : 5
Формат : UTF-8
Идентификатор кодека : S_TEXT/UTF8
Идентификатор кодека/Информация : UTF-8 Plain Text
Заголовок : SDH
Язык : English
Default : Нет
Forced : Нет
Меню
00:00:00.000 : :Chapter 01
00:10:26.375 : :Chapter 02
00:20:54.628 : :Chapter 03
00:31:15.290 : :Chapter 04
00:40:58.497 : :Chapter 05
00:50:50.714 : :Chapter 06
01:00:05.435 : :Chapter 07
01:09:51.812 : :Chapter 08
01:19:51.244 : :Chapter 09
01:31:07.295 : :Chapter 10
01:33:57.131 : :Chapter 11
01:42:35.357 : :Chapter 12

Скриншоты

---

Создавать темы 24-Июн-2014 00:23

[Профиль]  [ЛС] 

Q99

Стаж: 3 года 9 месяцев

Сообщений: 8

дайте скорость, пожалуйста!))

Создавать темы 14-Июл-2014 14:06

[Профиль]  [ЛС] 

Q99

Стаж: 3 года 9 месяцев

Сообщений: 8

дайте скорость!!!

Создавать темы 04-Авг-2014 20:19

[Профиль]  [ЛС] 
Показать сообщения:    
Ответить на тему

Текущее время: 21-Ноя 05:57

Часовой пояс: UTC + 5



Вы не можете начинать темы
Вы не можете отвечать на сообщения
Вы не можете редактировать свои сообщения
Вы не можете удалять свои сообщения
Вы не можете голосовать в опросах
Вы не можете прикреплять файлы к сообщениям
Вы не можете скачивать файлы