Принцесса Монако / Grace of Monaco (Оливье Даан / Olivier Dahan) [2014, Франция, США, Бельгия, Италия, Швейцария, Драма, мелодрама, биография HDTV 1080i] Dub

Ответить на тему
 

yusuf.0088 ®

Стаж: 4 года 1 месяц

Сообщений: 116

Симпатии: 69

Принцесса Монако / Grace of Monaco
«История любви, покорившая мир»-- Год выпуска: 2014
Страна: Франция, США, Бельгия, Италия, Швейцария
Жанр: Драма, мелодрама, биография
Год выпуска: 2014
Продолжительность: 01:38:47
Перевод: Профессиональный (дублированный)
Оригинальная аудиодорожка: нет
Cубтитры: нет--Режиссер: Оливье Даан / Olivier Dahan--В ролях: Николь Кидман, Пас Вега, Майло Вентимилья, Тим Рот, Паркер Поузи, Джеральдин Сомервилль, Дерек Джекоби, Фрэнк Ланджелла, Роджер Эштон-Гриффитс, Николас Фэррел--Описание:
Весь Голливуд лежал у ее ног — роскошные виллы, oскаровские приемы и шикарные мужчины, но она выбрала королевский дворец, аристократические балы и благородного принца из маленькой страны недалеко от Франции. Она была королевой Голливуда, но предпочла стать Принцессой Монако.-- --Качество: HDTV 1080i
Релиз: BigFaNgroup
Контейнер: MKV
Видео: MPEG-4 AVC / High Profile 4.0 / 1920x1080 / 25,000 fps / 6688 kbps
Аудио: Русский / AC3 6ch / 48 KHz / 384 kbps |Дубляж|

MediaInfo

Формат : Matroska
Версия формата : Version 4 / Version 2
Размер файла : 4,86 Гбайт
Продолжительность : 1 ч. 38 м.
Общий поток : 7038 Кбит/сек
Дата кодирования : UTC 2014-06-23 18:26:28
Программа кодирования : mkvmerge v6.0.0 ('Coming Up For Air') built on Jan 20 2013 09:52:00
Библиотека кодирования : libebml v1.3.0 + libmatroska v1.4.0
Видео
Идентификатор : 1
Формат : AVC
Формат/Информация : Advanced Video Codec
Профиль формата : [email protected]
Параметр CABAC формата : Да
Параметр ReFrames формата : 4 кадра
Идентификатор кодека : V_MPEG4/ISO/AVC
Продолжительность : 1 ч. 38 м.
Битрейт : 6514 Кбит/сек
Ширина : 1920 пикселей
Высота : 1080 пикселей
Соотношение сторон : 16:9
Режим частоты кадров : Постоянный
Частота кадров : 25,000 кадров/сек
Стандарт вещания : Component
Цветовое пространство : YUV
Субдискретизация насыщенности : 4:2:0
Битовая глубина : 8 бит
Тип развёртки : MBAFF
Бит/(Пиксели*Кадры) : 0.126
Размер потока : 4,49 Гбайт (93%)
Default : Да
Forced : Нет
Основные цвета : BT.709
Характеристики трансфера : BT.709
Коэффициенты матрицы : BT.709
Аудио
Идентификатор : 2
Формат : AC-3
Формат/Информация : Audio Coding 3
Расширение режима : CM (complete main)
Параметр Endianness формата : Big
Идентификатор кодека : A_AC3
Продолжительность : 1 ч. 38 м.
Вид битрейта : Постоянный
Битрейт : 384 Кбит/сек
Каналы : 6 каналов
Расположение каналов : Front: L C R, Side: L R, LFE
Частота : 48,0 КГц
Битовая глубина : 16 бит
Метод сжатия : С потерями
Размер потока : 271 Мбайт (5%)
Язык : Russian
Default : Да
Forced : Нет

Скриншоты

Создавать темы 24-Июн-2014 00:31

[Профиль]  [ЛС] 

Топик был перенесен из форума Зарубежное кино в форум HD-AVC
mp1988

Создавать темы 24-Июн-2014 22:14

 
Показать сообщения:    
Ответить на тему

Текущее время: 24-Ноя 10:25

Часовой пояс: UTC + 5



Вы не можете начинать темы
Вы не можете отвечать на сообщения
Вы не можете редактировать свои сообщения
Вы не можете удалять свои сообщения
Вы не можете голосовать в опросах
Вы не можете прикреплять файлы к сообщениям
Вы не можете скачивать файлы