Рейд 2 / The Raid 2: Berandal (Гарет Эванс / Gareth Evans) [2014 г., Боевик, триллер, криминал BDRip 720p]

Ответить на тему
 

БЕГИ 1996 ®

Стаж: 4 года 1 месяц

Сообщений: 17

Симпатии: 15

Рейд 2 / The Raid 2: Berandal
Год выпуска: 2014
Страна: Индонезия
Жанр: Боевик / Триллер / Криминал
Продолжительность: 02:30:28
Перевод: Дублированный TS
Режиссер: Гарет Эванс
Сценарий: Гарет Эванс
Продюсер: Натаниель Болотин, Арио Саганторо, Арам Терцакян
-
Премьера в мире: 21 января 2014
-
Бюджет: $4 5 00 000
Сборы в США: $2 627 209
Сборы в России: $613 136
-
В ролях: Ико Ювайс, Арифин Путра, Джули Эстелль, Яян Рухьян, Дони Аламсях, Ока Антара, Тио Пакусодево, Алекс Аббад, Сесеп Ариф Рахман
-
Описание: Из трех полицейских, выбравшихся из кровавого ада первой части, в живых остается только офицер Рама. Уволившись из спецназа, он пробует начать жизнь заново, но вскоре прошлое жестко напоминает о себе — преступники убивают его брата. Чтобы отомстить, он внедряется в мощный криминальный синдикат, где быстро поднимается до самых вершин бандитской иерархии. Врагов здесь еще больше, и каждый неверный шаг может оказаться последним. Здесь нет ни близких, ни друзей, ни любви, ни тоски, ни жалости!
-
Качество: BDRip
Формат: MKV
Видео кодек: V_MPEG4/ISO/AVC
Аудио кодек: MP3 (MPEG Layer 3)
Видео: MPEG4 Video (H264) 1280x536 23.976 fps 4 257 kbps
Аудио: MP3 44100Hz Stereo 128 kbps (Русский)
Субтитр: UTF-8 English-Forced

Медиа инфо

Video
ID : 1
Format : AVC
Format/Info : Advanced Video Codec
Format profile : [email protected]
Format settings, CABAC : Yes
Format settings, ReFrames : 5 frames
Codec ID : V_MPEG4/ISO/AVC
Duration : 2h 30mn
Bit rate : 4 257 Kbps
Width : 1 280 pixels
Height : 536 pixels
Display aspect ratio : 2.40:1
Frame rate mode : Constant
Frame rate : 23.976 fps
Color space : YUV
Chroma subsampling : 4:2:0
Bit depth : 8 bits
Scan type : Progressive
Bits/(Pixel*Frame) : 0.259
Stream size : 4.38 GiB (95%)
Writing library : x264 core 142 r2431 ac76440
Encoding settings : cabac=1 / ref=5 / deblock=1:0:0 / analyse=0x3:0x133 / me=umh / subme=7 / psy=1 / psy_rd=1.00:0.00 / mixed_ref=1 / me_range=16 / chroma_me=1 / trellis=1 / 8x8dct=1 / cqm=0 / deadzone=21,11 / fast_pskip=0 / chroma_qp_offset=-2 / threads=18 / lookahead_threads=3 / sliced_threads=0 / nr=0 / decimate=1 / interlaced=0 / bluray_compat=0 / constrained_intra=0 / bframes=3 / b_pyramid=2 / b_adapt=1 / b_bias=0 / direct=1 / weightb=1 / open_gop=0 / weightp=2 / keyint=250 / keyint_min=23 / scenecut=40 / intra_refresh=0 / rc_lookahead=40 / rc=2pass / mbtree=1 / bitrate=4257 / ratetol=1.0 / qcomp=0.60 / qpmin=0 / qpmax=69 / qpstep=4 / cplxblur=20.0 / qblur=0.5 / ip_ratio=1.40 / aq=1:1.00
Language : Indonesian
Default : Yes
Forced : No
Audio
ID : 2
Format : MPEG Audio
Format version : Version 1
Format profile : Layer 3
Codec ID : A_MPEG/L3
Codec ID/Hint : MP3
Duration : 2h 30mn
Bit rate mode : Constant
Bit rate : 128 Kbps
Channel(s) : 2 channels
Sampling rate : 44.1 KHz
Compression mode : Lossy
Stream size : 138 MiB (3%)
Language : Russian
Default : Yes
Forced : No
Text
ID : 3
Format : UTF-8
Codec ID : S_TEXT/UTF8
Codec ID/Info : UTF-8 Plain Text
Title : English-Forced
Language : English
Default : Yes
Forced : Yes
Menu
00:00:00.000 : en:00:00:00.000
00:08:02.315 : en:00:08:02.315
00:14:03.217 : en:00:14:03.217
00:21:08.893 : en:00:21:08.893
00:31:45.487 : en:00:31:45.487
00:42:22.123 : en:00:42:22.123
00:50:55.177 : en:00:50:55.177
01:01:58.423 : en:01:01:58.423
01:11:49.764 : en:01:11:49.764
01:24:47.165 : en:01:24:47.165
01:36:31.995 : en:01:36:31.995
01:44:18.752 : en:01:44:18.752
01:48:31.714 : en:01:48:31.714
01:57:20.283 : en:01:57:20.283
02:05:59.093 : en:02:05:59.093
02:20:02.894 : en:02:20:02.894

Скриншоты







Последний раз редактировалось: БЕГИ 1996 (2014-06-24 10:11), всего редактировалось 2 раз(а)

Создавать темы 24-Июн-2014 07:47

[Профиль]  [ЛС] 

Mrblack

Стаж: 6 лет 3 месяца

Сообщений: 247

Симпатии: 52

Перевод: Профессиональный (дублированный)
озвучка и правда дублированный? наверника ТС

Создавать темы 24-Июн-2014 08:46

[Профиль]  [ЛС] 

kurt666

Стаж: 4 года 9 месяцев

Сообщений: 20

Симпатии: 1

наверняка ТС, для BDRip звук в MP3 не согласуется

Создавать темы 24-Июн-2014 09:42

[Профиль]  [ЛС] 

БЕГИ 1996 ®

Стаж: 4 года 1 месяц

Сообщений: 17

Симпатии: 15

Mrblack, kurt666, Вы правы, исправил

Создавать темы 24-Июн-2014 09:44

[Профиль]  [ЛС] 

siyovush101

Стаж: 3 года 6 месяцев

Сообщений: 205

Симпатии: 71



Я взял это у Кубаева Муххидинна. так как самый первый мой торрент был его))) Ты Тоже??)))

Создавать темы 27-Июн-2014 10:42

[Профиль]  [ЛС] 

Hurshid

Стаж: 4 года 1 месяц

Сообщений: 12

Ребята встаньте пожалуйста на раздачу кто сможет

Создавать темы 04-Июл-2014 21:28

[Профиль]  [ЛС] 
Показать сообщения:    
Ответить на тему

Текущее время: 20-Авг 10:56

Часовой пояс: UTC + 5



Вы не можете начинать темы
Вы не можете отвечать на сообщения
Вы не можете редактировать свои сообщения
Вы не можете удалять свои сообщения
Вы не можете голосовать в опросах
Вы не можете прикреплять файлы к сообщениям
Вы не можете скачивать файлы