Роб Рой / Rob Roy (Майкл Кейтон-Джонс) [1995 г., боевик, приключения, биография, ..., BDRip]

Ответить на тему
 

igor1968 ®

Стаж: 5 лет 7 месяцев

Сообщений: 366

Симпатии: 197

Роб Рой / Rob Roy«Honor made him a man. Courage made him a hero. History made him a Legend» Год выпуска: 1995
Страна:
Жанр: боевик, приключения, биография, ...
Продолжительность: 02:19:17.592
Перевод: Профессиональный (многоголосый, закадровый) Варус Видео
Режиссер: Майкл Кейтон-Джонс
В главных ролях:
Лиам Нисон
Джессика Лэнг
Джон Хёрт
Тим Рот
Эрик Столц
Эндрю Кир
Брайан Кокс
Брайан МакКарди
Гилберт Мартин
Вики Массон
...
Роли дублировали:
Андрей Ташков
Анна Каменкова
Алексей Золотницкий
Виктор Петров
Игорь Ясулович
...
Зима на севере Шотландии очень сурова, и Роб Рой, чтобы обеспечить свой семейный клан, вынужден просить денег у не слишком благородного маркиза Монтерозского.
Однако, прихвостень маркиза коварно завладевает этими деньгами, и Роб Рой оказывается втянутым в самую опасную схватку в своей жизни.- -Качество: BDRip
Формат: AVI
Видео кодек: XviD
Аудио кодек: AC3
Видео: 720x304 (2.37:1), 23.976 fps, XviD MPEG-4 ~1302 kbps avg, 0.25 bit/pixel
Аудио: 48 kHz, AC3 Dolby Digital, 2/0 (L,R) ch, ~192.00 kbps avg-

MediaInfo

General
Complete name : Rob.Roy.1995.BDRip.avi
Format : AVI
Format/Info : Audio Video Interleave
File size : 1.46 GiB
Duration : 2h 19mn
Overall bit rate : 1 504 Kbps
Movie name : Rob.Roy.1996.BDRip
Director : rip by maygli
Writing application : VirtualDubModRus 1.5.10.2 (build 2542/release)
Copyright : www.starbit.org (RG Rulya74)
Video
ID : 0
Format : MPEG-4 Visual
Format profile : Advanced [email protected]
Format settings, BVOP : Yes
Format settings, QPel : No
Format settings, GMC : No warppoints
Format settings, Matrix : Custom
Codec ID : XVID
Codec ID/Hint : XviD
Duration : 2h 19mn
Bit rate : 1 302 Kbps
Width : 720 pixels
Height : 304 pixels
Display aspect ratio : 2.35:1
Frame rate : 23.976 fps
Color space : YUV
Chroma subsampling : 4:2:0
Bit depth : 8 bits
Scan type : Progressive
Compression mode : Lossy
Bits/(Pixel*Frame) : 0.248
Stream size : 1.27 GiB (87%)
Writing library : XviD 65
Audio
ID : 1
Format : AC-3
Format/Info : Audio Coding 3
Mode extension : CM (complete main)
Format settings, Endianness : Big
Codec ID : 2000
Duration : 2h 19mn
Bit rate mode : Constant
Bit rate : 192 Kbps
Channel(s) : 2 channels
Channel positions : Front: L R
Sampling rate : 48.0 KHz
Bit depth : 16 bits
Compression mode : Lossy
Stream size : 191 MiB (13%)
Alignment : Split accross interleaves
Interleave, duration : 42 ms (1.00 video frame)
Interleave, preload duration : 500 ms
Title : Профессиональный (многоголосый закадровый) Варус Видео
- - - -

Создавать темы 24-Июн-2014 11:53

[Профиль]  [ЛС] 
Показать сообщения:    
Ответить на тему

Текущее время: 19-Окт 19:34

Часовой пояс: UTC + 5



Вы не можете начинать темы
Вы не можете отвечать на сообщения
Вы не можете редактировать свои сообщения
Вы не можете удалять свои сообщения
Вы не можете голосовать в опросах
Вы не можете прикреплять файлы к сообщениям
Вы не можете скачивать файлы