(Chillout, Lounge, Downtempo) KOOQLA - Paranormal - 2009, FLAC (tracks), lossless

Ответить на тему
 

llewellys ®

Стаж: 4 года 11 месяцев

Сообщений: 41

Симпатии: 4

KOOQLA - Дискография2 альбома (2009-2010)
Жанр: Chillout, Lounge, Downtempo | Длительность: 1 час 34 минуты | Тип рипа: FLAC (tracks+.cue)

Пресс-релиз

С момента дебютного альбома проекта KOOQLA, созданного продюсером-электронщиком Артемом Харченко, прошел год с небольшим. За это время KOOQLA успела получить премию «Золотая Горгулья», открыть главную сцену Казантипа 2009 и «Первую музыкальную конференцию на Марсе» 2010, «разогреть» Morcheeba на «Стереолете», съездить на гастроли в Европу, выпустить 6 синглов и дебютный лонгплей, который скачало более 700 000 человек. За это время – в перерывах и во время гастролей - группа успела записать новый альбом. Итак.
KOOQLA представляет альбом – «FRUIT». KOOQLA вообще представляет собой небанальное явление на российской лайв-сцене и вообще много чего интересного представляет себе в своем воображении. А главное, прекрасно представляет, как превратить эти воображаемые вещи в реальные – в музыку, тексты, кино и, конечно, «сценические представления», череда которых в поддержку нового альбома состоится не только в России, но и в Европе.
Новый альбом «FRUIT» является ни чем иным, как созревшим к осени плодом творческого воображения и плодом усилий всей команды, которая, кстати, предстанет в обновленном составе. Кроме «спевшегося» дуэта Артема Харченко (музыка, продюсирование, идеология) и разноглазой красотки куклы Музы(вдохновление, иногда насильственное), над программой «FRUIT» работают:
Ната Смирина - тексты, вокал
Антон Чумаченко – бас, клавиши
Константин Солдатов – ударные
Стас Кононов – гитара
Надо сказать, каждый участник проекта KOOQLA, который все больше тяготеет к аналоговому звучанию, тот еще фрукт. Присутствие каждого из них повлияло на результат и настроение нового альбома. Каждая композиция – это как всегда в случае KOOQLA, результат эксперимента. Хотя, если говорить о его жанре - это все та же смесь easy-listening, down-tempo, funk и electronica.
Артем Харченко: «Aльбом стал более взрослым, более «прозрачным». В плане технической реализации - мы еще больше ушли в аналог. Стало больше экспериментов со звучанием живых инструментов и методов их записи. Многие песни писались в процессе гастролей. Первый трек будущего альбома – Mute – был создан еще прошлой осенью...»
Так что можно сказать, «FRUIT» зрел достаточно долго. Он получился цельный, но состоящий из множества элементов. Простой и крепкий снаружи, неожиданно сложный внутри. Немного роковой и обманчивый. Не приторный, не горький - но сладко-терпкий. Твердый, но хрупкий. Искрящийся и сочный.
Как гранат.
Официальные ресурсы
http://www.kooqla.com
http://www.twitter.com/kooqla
http://www.youtube.com/user/kooqlaband
http://www.lastfm.ru/music/KOOQLA
Альбомы:

2009 - Paranormal

KOOQLA - Paranormal
Лейбл: Snoochi Boochi
Cat.#: SN030
Страна: Россия
Дата: 02 Ноября 2009
1. Leave Me Now (3:47)
2. Fake (3:44)
3. Forecast (4:00)
4. Humans Executer (3:38)
5. Paranoia (3:05)
6. Deep End (4:01)
7. Maniac (3:27)
8. Voicetoy (3:49)
9. In My Mind (4:57)
10. Silence (7:29)
11. 15 Levels (6:05)
12. Forecast (DJ Generous House Edit) (4:59)

Лог создания рипа

Exact Audio Copy V0.99 prebeta 5 from 4. May 2009
EAC extraction logfile from 2. July 2009, 17:20
Kooqla / Paranormal
Used drive : Optiarc DVD RW AD-7200S Adapter: 0 ID: 0
Read mode : Secure
Utilize accurate stream : Yes
Defeat audio cache : Yes
Make use of C2 pointers : No
Read offset correction : 48
Overread into Lead-In and Lead-Out : No
Fill up missing offset samples with silence : Yes
Delete leading and trailing silent blocks : No
Null samples used in CRC calculations : Yes
Used interface : Native Win32 interface for Win NT & 2000
Gap handling : Appended to previous track
Used output format : User Defined Encoder
Selected bitrate : 320 kBit/s
Quality : High
Add ID3 tag : No
Command line compressor : C:\Program Files\Exact Audio Copy\Flac\flac.exe
Additional command line options : -6 -V -T "ARTIST=%a" -T "TITLE=%t" -T "ALBUM=%g" -T "DATE=%y" -T "TRACKNUMBER=%n" -T "GENRE=%m" -T "COMMENT=%e" %s -o %d
TOC of the extracted CD
Track | Start | Length | Start sector | End sector
---------------------------------------------------------
1 | 0:00.00 | 3:47.74 | 0 | 17098
2 | 3:47.74 | 3:44.61 | 17099 | 33959
3 | 7:32.60 | 4:00.07 | 33960 | 51966
4 | 11:32.67 | 3:38.12 | 51967 | 68328
5 | 15:11.04 | 3:05.73 | 68329 | 82276
6 | 18:17.02 | 4:01.08 | 82277 | 100359
7 | 22:18.10 | 3:27.74 | 100360 | 115958
8 | 25:46.09 | 3:49.58 | 115959 | 133191
9 | 29:35.67 | 4:56.74 | 133192 | 155465
10 | 34:32.66 | 7:29.62 | 155466 | 189202
11 | 42:02.53 | 6:05.37 | 189203 | 216614
12 | 48:08.15 | 4:58.72 | 216615 | 239036
Track 1
Filename C:\Users\Vis\Desktop\R-tem\08 Paranormal (2009)\Новая папка\01 - Leave Me Now.wav
Pre-gap length 0:00:02.00
Peak level 96.1 %
Track quality 100.0 %
Test CRC EDC3831C
Copy CRC EDC3831C
Track not present in AccurateRip database
Copy OK
Track 2
Filename C:\Users\Vis\Desktop\R-tem\08 Paranormal (2009)\Новая папка\02 - Fake.wav
Peak level 96.1 %
Track quality 99.9 %
Test CRC 69568B05
Copy CRC 69568B05
Track not present in AccurateRip database
Copy OK
Track 3
Filename C:\Users\Vis\Desktop\R-tem\08 Paranormal (2009)\Новая папка\03 - Forecast.wav
Peak level 96.1 %
Track quality 99.9 %
Test CRC 04D36DFE
Copy CRC 04D36DFE
Track not present in AccurateRip database
Copy OK
Track 4
Filename C:\Users\Vis\Desktop\R-tem\08 Paranormal (2009)\Новая папка\04 - Humans Executer.wav
Peak level 96.1 %
Track quality 99.9 %
Test CRC 80EBF046
Copy CRC 80EBF046
Track not present in AccurateRip database
Copy OK
Track 5
Filename C:\Users\Vis\Desktop\R-tem\08 Paranormal (2009)\Новая папка\05 - Paranoia.wav
Peak level 96.1 %
Track quality 99.9 %
Test CRC 482D0001
Copy CRC 482D0001
Track not present in AccurateRip database
Copy OK
Track 6
Filename C:\Users\Vis\Desktop\R-tem\08 Paranormal (2009)\Новая папка\06 - Deep End.wav
Peak level 96.1 %
Track quality 100.0 %
Test CRC 95738D70
Copy CRC 95738D70
Track not present in AccurateRip database
Copy OK
Track 7
Filename C:\Users\Vis\Desktop\R-tem\08 Paranormal (2009)\Новая папка\07 - Maniac.wav
Peak level 96.1 %
Track quality 100.0 %
Test CRC 10D908CB
Copy CRC 10D908CB
Track not present in AccurateRip database
Copy OK
Track 8
Filename C:\Users\Vis\Desktop\R-tem\08 Paranormal (2009)\Новая папка\08 - Voicetoy.wav
Peak level 96.1 %
Track quality 99.9 %
Test CRC D98E2CDC
Copy CRC D98E2CDC
Track not present in AccurateRip database
Copy OK
Track 9
Filename C:\Users\Vis\Desktop\R-tem\08 Paranormal (2009)\Новая папка\09 - In My Mind.wav
Peak level 96.1 %
Track quality 100.0 %
Test CRC 1EB8BDC9
Copy CRC 1EB8BDC9
Track not present in AccurateRip database
Copy OK
Track 10
Filename C:\Users\Vis\Desktop\R-tem\08 Paranormal (2009)\Новая папка\10 - Silence.wav
Peak level 96.1 %
Track quality 100.0 %
Test CRC 7048B586
Copy CRC 7048B586
Track not present in AccurateRip database
Copy OK
Track 11
Filename C:\Users\Vis\Desktop\R-tem\08 Paranormal (2009)\Новая папка\11 - 15 Levels.wav
Peak level 100.0 %
Track quality 100.0 %
Test CRC 4DE1B54D
Copy CRC 4DE1B54D
Track not present in AccurateRip database
Copy OK
Track 12
Filename C:\Users\Vis\Desktop\R-tem\08 Paranormal (2009)\Новая папка\12 - Forecast (DJ Generous House Edit).wav
Peak level 100.0 %
Track quality 100.0 %
Test CRC A6D80309
Copy CRC A6D80309
Track not present in AccurateRip database
Copy OK
None of the tracks are present in the AccurateRip database
No errors occurred
End of status report

Содержание индексной карты (.CUE)

REM GENRE Pop
REM DATE 2009
REM DISCID AC0C730C
REM COMMENT "ExactAudioCopy v0.99pb5"
PERFORMER "Kooqla"
TITLE "Paranormal"
FILE "01 - Leave Me Now.flac" WAVE
TRACK 01 AUDIO
TITLE "Leave Me Now"
PERFORMER "Kooqla"
INDEX 01 00:00:00
FILE "02 - Fake.flac" WAVE
TRACK 02 AUDIO
TITLE "Fake"
PERFORMER "Kooqla"
INDEX 01 00:00:00
FILE "03 - Forecast.flac" WAVE
TRACK 03 AUDIO
TITLE "Forecast"
PERFORMER "Kooqla"
INDEX 01 00:00:00
FILE "04 - Humans Executer.flac" WAVE
TRACK 04 AUDIO
TITLE "Humans Executer"
PERFORMER "Kooqla"
INDEX 01 00:00:00
FILE "05 - Paranoia.flac" WAVE
TRACK 05 AUDIO
TITLE "Paranoia"
PERFORMER "Kooqla"
INDEX 01 00:00:00
FILE "06 - Deep End.flac" WAVE
TRACK 06 AUDIO
TITLE "Deep End"
PERFORMER "Kooqla"
INDEX 01 00:00:00
FILE "07 - Maniac.flac" WAVE
TRACK 07 AUDIO
TITLE "Maniac"
PERFORMER "Kooqla"
INDEX 01 00:00:00
FILE "08 - Voicetoy.flac" WAVE
TRACK 08 AUDIO
TITLE "Voicetoy"
PERFORMER "Kooqla"
INDEX 01 00:00:00
FILE "09 - In My Mind.flac" WAVE
TRACK 09 AUDIO
TITLE "In My Mind"
PERFORMER "Kooqla"
INDEX 01 00:00:00
FILE "10 - Silence.flac" WAVE
TRACK 10 AUDIO
TITLE "Silence"
PERFORMER "Kooqla"
INDEX 01 00:00:00
FILE "11 - 15 Levels.flac" WAVE
TRACK 11 AUDIO
TITLE "15 Levels"
PERFORMER "Kooqla"
INDEX 01 00:00:00
FILE "12 - Forecast (DJ Generous House Edit).flac" WAVE
TRACK 12 AUDIO
TITLE "Forecast (DJ Generous House Edit)"
PERFORMER "Kooqla"
INDEX 01 00:00:00

2010 - Fruit

KOOQLA - Fruit
Лейбл: Snoochi Boochi
Cat.#: n/a
Страна: Россия
Дата: 04 Ноября 2010
1. Myself (5:11)
2. My Blue Tale (4:05)
3. Fuck It (3:53)
4. Soulmate (5:00)
5. Mute (Album Version) (4:07)
6. Fruit (3:49)
7. Roots (3:46)
8. Lie (4:24)
9. Hurricane (4:05)
10. Night (3:20)

Лог создания рипа

Exact Audio Copy V0.99 prebeta 5 from 4. May 2009
EAC extraction logfile from 6. November 2010, 11:01
KOOQLA / Fruit
Used drive : Optiarc DVD RW AD-7200S Adapter: 2 ID: 0
Read mode : Secure
Utilize accurate stream : Yes
Defeat audio cache : Yes
Make use of C2 pointers : No
Read offset correction : 48
Overread into Lead-In and Lead-Out : No
Fill up missing offset samples with silence : Yes
Delete leading and trailing silent blocks : No
Null samples used in CRC calculations : Yes
Used interface : Native Win32 interface for Win NT & 2000
Gap handling : Appended to previous track
Used output format : Internal WAV Routines
Sample format : 44.100 Hz; 16 Bit; Stereo
TOC of the extracted CD
Track | Start | Length | Start sector | End sector
---------------------------------------------------------
1 | 0:00.00 | 5:11.52 | 0 | 23376
2 | 5:11.52 | 4:06.00 | 23377 | 41826
3 | 9:17.52 | 3:53.52 | 41827 | 59353
4 | 13:11.29 | 5:00.49 | 59354 | 81902
5 | 18:12.03 | 4:07.38 | 81903 | 100465
6 | 22:19.41 | 3:49.28 | 100466 | 117668
7 | 26:08.69 | 3:46.12 | 117669 | 134630
8 | 29:55.06 | 4:24.10 | 134631 | 154440
9 | 34:19.16 | 4:05.12 | 154441 | 172827
10 | 38:24.28 | 3:20.74 | 172828 | 187901
Track 1
Filename C:\Rip\KOOQLA\01 - Myself.wav
Pre-gap length 0:00:02.00
Peak level 97.0 %
Track quality 100.0 %
Test CRC 5847F150
Copy CRC 5847F150
Track not present in AccurateRip database
Copy OK
Track 2
Filename C:\Rip\KOOQLA\02 - My Blue Tale.wav
Peak level 96.3 %
Track quality 100.0 %
Test CRC 8528F5F2
Copy CRC 8528F5F2
Track not present in AccurateRip database
Copy OK
Track 3
Filename C:\Rip\KOOQLA\03 - Fuck It.wav
Peak level 96.6 %
Track quality 100.0 %
Test CRC 16DCC516
Copy CRC 16DCC516
Track not present in AccurateRip database
Copy OK
Track 4
Filename C:\Rip\KOOQLA\04 - Soulmate.wav
Peak level 98.9 %
Track quality 100.0 %
Test CRC C00024A2
Copy CRC C00024A2
Track not present in AccurateRip database
Copy OK
Track 5
Filename C:\Rip\KOOQLA\05 - Mute (Album Version).wav
Peak level 96.8 %
Track quality 100.0 %
Test CRC C8CAE4B0
Copy CRC C8CAE4B0
Track not present in AccurateRip database
Copy OK
Track 6
Filename C:\Rip\KOOQLA\06 - Fruit.wav
Peak level 96.6 %
Track quality 100.0 %
Test CRC 832623BA
Copy CRC 832623BA
Track not present in AccurateRip database
Copy OK
Track 7
Filename C:\Rip\KOOQLA\07 - Roots.wav
Peak level 98.3 %
Track quality 100.0 %
Test CRC 4D9501A6
Copy CRC 4D9501A6
Track not present in AccurateRip database
Copy OK
Track 8
Filename C:\Rip\KOOQLA\08 - Lie.wav
Peak level 96.6 %
Track quality 100.0 %
Test CRC A51853E8
Copy CRC A51853E8
Track not present in AccurateRip database
Copy OK
Track 9
Filename C:\Rip\KOOQLA\09 - Hurricane.wav
Peak level 96.2 %
Track quality 100.0 %
Test CRC AA3356A9
Copy CRC AA3356A9
Track not present in AccurateRip database
Copy OK
Track 10
Filename C:\Rip\KOOQLA\10 - Night.wav
Peak level 96.8 %
Track quality 100.0 %
Test CRC 3C4AE544
Copy CRC 3C4AE544
Track not present in AccurateRip database
Copy OK
None of the tracks are present in the AccurateRip database
No errors occurred
End of status report

Содержание индексной карты (.CUE)

REM GENRE Downtempo
REM DATE 2010
REM DISCID 7F09C90A
REM COMMENT "ExactAudioCopy v0.99pb5"
PERFORMER "KOOQLA"
TITLE "Fruit"
FILE "01 - Myself.wav" WAVE
TRACK 01 AUDIO
TITLE "Myself"
PERFORMER "KOOQLA"
INDEX 01 00:00:00
FILE "02 - My Blue Tale.wav" WAVE
TRACK 02 AUDIO
TITLE "My Blue Tale"
PERFORMER "KOOQLA"
INDEX 01 00:00:00
FILE "03 - Fuck It.wav" WAVE
TRACK 03 AUDIO
TITLE "Fuck It"
PERFORMER "KOOQLA"
INDEX 01 00:00:00
FILE "04 - Soulmate.wav" WAVE
TRACK 04 AUDIO
TITLE "Soulmate"
PERFORMER "KOOQLA"
INDEX 01 00:00:00
FILE "05 - Mute (Album Version).wav" WAVE
TRACK 05 AUDIO
TITLE "Mute (Album Version)"
PERFORMER "KOOQLA"
INDEX 01 00:00:00
FILE "06 - Fruit.wav" WAVE
TRACK 06 AUDIO
TITLE "Fruit"
PERFORMER "KOOQLA"
INDEX 01 00:00:00
FILE "07 - Roots.wav" WAVE
TRACK 07 AUDIO
TITLE "Roots"
PERFORMER "KOOQLA"
INDEX 01 00:00:00
FILE "08 - Lie.wav" WAVE
TRACK 08 AUDIO
TITLE "Lie"
PERFORMER "KOOQLA"
INDEX 01 00:00:00
FILE "09 - Hurricane.wav" WAVE
TRACK 09 AUDIO
TITLE "Hurricane"
PERFORMER "KOOQLA"
INDEX 01 00:00:00
FILE "10 - Night.wav" WAVE
TRACK 10 AUDIO
TITLE "Night"
PERFORMER "KOOQLA"
INDEX 01 00:00:00

Создавать темы 25-Июн-2014 02:00

[Профиль]  [ЛС] 

ibragimof

Стаж: 6 лет 6 месяцев

Сообщений: 253

Симпатии: 48

Довольно интересная музыка
Спасибо

Создавать темы 10-Сен-2014 18:33

[Профиль]  [ЛС] 
Показать сообщения:    
Ответить на тему

Текущее время: 23-Окт 04:02

Часовой пояс: UTC + 5



Вы не можете начинать темы
Вы не можете отвечать на сообщения
Вы не можете редактировать свои сообщения
Вы не можете удалять свои сообщения
Вы не можете голосовать в опросах
Вы не можете прикреплять файлы к сообщениям
Вы не можете скачивать файлы